<?xml version="1.0" standalone="no"?>
<!DOCTYPE svg PUBLIC "-//W3C//DTD SVG 1.1//EN" "http://www.w3.org/Graphics/SVG/1.1/DTD/svg11.dtd" >
<svg xmlns="http://www.w3.org/2000/svg" xmlns:xlink="http://www.w3.org/1999/xlink" version="1.1">
<metadata>
Created by FontForge 20190801 at Fri Dec  3 16:25:37 2021
 By www-data
(c) 2019, 2021 by Face37 Ltd. All rights reserved.
</metadata>
<defs>
<font id="F37JudgeBoldCompressed" horiz-adv-x="287" >
  <font-face 
    font-family="F37JudgeBoldCompressed"
    font-weight="700"
    font-stretch="extra-condensed"
    units-per-em="1000"
    panose-1="0 0 0 0 0 0 0 0 0 0"
    ascent="800"
    descent="-200"
    x-height="550"
    cap-height="750"
    bbox="-61.9091 -221 815 1114"
    underline-thickness="50"
    underline-position="-125"
    unicode-range="U+0020-F8FF"
  />
<missing-glyph horiz-adv-x="600" 
 />
    <glyph glyph-name=".notdef" horiz-adv-x="600" 
 />
    <glyph glyph-name=".null" horiz-adv-x="0" 
 />
    <glyph glyph-name="nonmarkingreturn" horiz-adv-x="333" 
 />
    <glyph glyph-name="space" unicode=" " horiz-adv-x="100" 
 />
    <glyph glyph-name="exclam" unicode="!" horiz-adv-x="156" 
d="M134 750v-540h-112v540h112zM16 55q0 27 17.5 44t44.5 17q28 0 45 -17t17 -44q0 -28 -17 -45t-45 -17q-27 0 -44.5 17t-17.5 45z" />
    <glyph glyph-name="quotedbl" unicode="&#x22;" horiz-adv-x="320" 
d="M85 760q27 0 44.5 -17t17.5 -44q0 -17 -7.5 -50t-20.5 -82l-13 -49h-42q-41 164 -41 181q0 27 17.5 44t44.5 17zM173 699q0 27 17.5 44t44.5 17t44.5 -17t17.5 -44q0 -17 -7.5 -50t-20.5 -82l-13 -49h-42q-41 164 -41 181z" />
    <glyph glyph-name="numbersign" unicode="#" horiz-adv-x="412" 
d="M17 536h84l29 214h112l-100 -750h-112l26 197h-39v109h54l16 121h-70v109zM170 0l100 750h112l-29 -214h42v-109h-56l-16 -121h72v-109h-87l-26 -197h-112z" />
    <glyph glyph-name="dollar" unicode="$" horiz-adv-x="271" 
d="M83 860h105v-110q67 -27 67 -119v-111h-112v128q0 8 -8 8t-8 -8v-110q0 -34 10 -53t44 -59q36 -42 53 -75t20 -53.5t3 -57.5v-117q0 -97 -69 -124v-109h-105v109q-69 25 -69 123v108h111v-125q0 -11 10 -11q11 0 11 11v123q0 38 -7 55.5t-43 59.5q-47 56 -64 95.5
t-17 84.5v108q0 89 68 119v110z" />
    <glyph glyph-name="percent" unicode="%" horiz-adv-x="530" 
d="M443 750h65l-421 -750h-65zM26 438v229q0 38 29 64t74 26q46 0 75 -26t29 -64v-229q0 -38 -29 -63.5t-74 -25.5q-46 0 -75 25.5t-29 63.5zM120 446q0 -11 10 -11q9 0 9 11v213q0 11 -9 11q-10 0 -10 -11v-213zM295 78v229q0 38 29 64t74 26q46 0 75 -26t29 -64v-229
q0 -38 -29 -63.5t-74 -25.5q-46 0 -75 25.5t-29 63.5zM389 86q0 -11 10 -11q9 0 9 11v213q0 11 -9 11q-10 0 -10 -11v-213z" />
    <glyph glyph-name="ampersand" unicode="&#x26;" horiz-adv-x="297" 
d="M46 537q-15 53 -15 77v25q0 54 32 87.5t85 33.5q51 0 82 -33t31 -89v-66h-99v73q0 23 -16 23t-16 -22v-21q0 -39 8 -66l58 -197l3 95h81l-22 -306l45 -151h-98l-9 30q-24 -40 -78 -40q-51 0 -79 33.5t-28 91.5v234q0 79 58 111zM110 115q0 -24 18 -24q21 0 23 23l4 55
l-45 152v-206z" />
    <glyph glyph-name="quotesingle" unicode="'" horiz-adv-x="170" 
d="M85 760q27 0 44.5 -17t17.5 -44q0 -17 -7.5 -50t-20.5 -82l-13 -49h-42q-41 164 -41 181q0 27 17.5 44t44.5 17z" />
    <glyph glyph-name="parenleft" unicode="(" horiz-adv-x="173" 
d="M100 -13q-88 176 -88 388t88 388l69 -21q-44 -167 -44 -367t44 -367z" />
    <glyph glyph-name="parenright" unicode=")" horiz-adv-x="173" 
d="M73 763q88 -176 88 -388t-88 -388l-69 21q44 167 44 367t-44 367z" />
    <glyph glyph-name="asterisk" unicode="*" horiz-adv-x="308" 
d="M109 470l16 90l-70 -59l-45 78l87 31l-87 31l45 78l70 -59l-16 90h90l-16 -90l70 59l45 -78l-87 -31l87 -31l-45 -78l-70 59l16 -90h-90z" />
    <glyph glyph-name="plus" unicode="+" horiz-adv-x="292" 
d="M277 440v-104h-75v-90h-112v90h-75v104h75v90h112v-90h75z" />
    <glyph glyph-name="comma" unicode="," horiz-adv-x="158" 
d="M141 55q0 -16 -9 -39l-57 -142l-45 18l39 102q-24 3 -38 19.5t-14 41.5q0 27 17.5 44t44.5 17t44.5 -17t17.5 -44z" />
    <glyph glyph-name="hyphen" unicode="-" horiz-adv-x="192" 
d="M177 393v-109h-162v109h162z" />
    <glyph glyph-name="period" unicode="." horiz-adv-x="158" 
d="M79 -7q-27 0 -44.5 17t-17.5 45q0 27 17.5 44t44.5 17q28 0 45 -17t17 -44q0 -28 -17 -45t-45 -17z" />
    <glyph glyph-name="slash" unicode="/" horiz-adv-x="232" 
d="M222 750l-100 -750h-112l100 750h112z" />
    <glyph glyph-name="zero" unicode="0" 
d="M144 -10q-57 0 -92.5 34t-35.5 86v530q0 52 35.5 86t92.5 34q56 0 91.5 -34t35.5 -86v-530q0 -52 -35.5 -86t-91.5 -34zM128 110q0 -17 16 -17q15 0 15 17v530q0 17 -15 17q-16 0 -16 -17v-530z" />
    <glyph glyph-name="one" unicode="1" horiz-adv-x="249" 
d="M8 0v105h60v540h-60v105h172v-645h56v-105h-228z" />
    <glyph glyph-name="two" unicode="2" horiz-adv-x="278" 
d="M13 219q0 26 4.5 47.5t15 40t17.5 28.5t23 28t21 24t18 21t18 21.5t12.5 19.5t10 25.5t2.5 27.5v138q0 16 -15 16t-15 -16v-120h-113v120q0 52 35.5 86t92.5 34t92.5 -34t35.5 -86v-149q0 -25 -3.5 -45t-14 -40t-15 -27t-23 -29.5t-20.5 -24.5q-6 -7 -17.5 -21.5
t-15 -19.5t-11 -15.5t-10 -17t-6 -16.5t-4.5 -20t-1 -23v-87h141v-105h-255v219z" />
    <glyph glyph-name="three" unicode="3" horiz-adv-x="296" 
d="M143 -10q-58 0 -95 38.5t-37 95.5v106h114v-109q0 -25 21 -25q20 0 20 25v194q0 10 -6 18t-17 8h-75v108h71q26 0 26 29v152q0 22 -18 22q-20 0 -20 -22v-110h-114v105q0 62 36.5 98.5t96.5 36.5q59 0 96 -38t37 -99v-144q0 -50 -34 -84q35 -35 35 -84v-188
q0 -58 -38 -95.5t-99 -37.5z" />
    <glyph glyph-name="four" unicode="4" horiz-adv-x="291" 
d="M151 0v144h-145v97l53 509h114l-50 -501h28v124h110v-124h31v-105h-31v-144h-110z" />
    <glyph glyph-name="five" unicode="5" horiz-adv-x="281" 
d="M139 -9q-54 0 -90.5 34t-36.5 84v122h113v-121q0 -16 15 -16t15 16v262q0 16 -16 16q-15 0 -15 -16v-50h-111v78l12 350h237v-105h-139l-7 -163q22 15 47 15q49 0 77.5 -30.5t28.5 -86.5v-270q0 -52 -36 -85.5t-94 -33.5z" />
    <glyph glyph-name="six" unicode="6" horiz-adv-x="290" 
d="M145 760q56 0 92.5 -37.5t36.5 -95.5v-97h-114v110q0 16 -15 16q-16 0 -16 -16v-198q21 14 46 14q98 0 98 -116v-229q0 -57 -35 -89t-93 -32q-59 0 -94 31.5t-35 89.5v519q0 57 35.5 93.5t93.5 36.5zM129 110q0 -16 15 -16t15 16v221q0 16 -15 16t-15 -16v-221z" />
    <glyph glyph-name="seven" unicode="7" horiz-adv-x="243" 
d="M17 0l108 645h-119v105h227v-99l-109 -651h-107z" />
    <glyph glyph-name="eight" unicode="8" horiz-adv-x="292" 
d="M146 -10q-59 0 -94.5 34t-35.5 86v190q0 60 35 92q-34 29 -34 91v157q0 52 35.5 86t93.5 34t93.5 -34t35.5 -86v-157q0 -62 -34 -91q35 -32 35 -92v-190q0 -52 -35.5 -86t-94.5 -34zM129 112q0 -18 17 -18t17 18v200q0 21 -17 21t-17 -21v-200zM130 464q0 -21 16 -21
t16 21v175q0 17 -16 17t-16 -17v-175z" />
    <glyph glyph-name="nine" unicode="9" horiz-adv-x="290" 
d="M145 -10q-56 0 -92.5 37.5t-36.5 95.5v97h114v-110q0 -16 15 -16q16 0 16 16v198q-21 -14 -46 -14q-98 0 -98 116v229q0 57 35 89t93 32q59 0 94 -31.5t35 -89.5v-519q0 -57 -35.5 -93.5t-93.5 -36.5zM131 419q0 -16 15 -16t15 16v221q0 16 -15 16t-15 -16v-221z" />
    <glyph glyph-name="colon" unicode=":" horiz-adv-x="186" 
d="M93 -7q-27 0 -44.5 17t-17.5 45q0 27 17.5 44t44.5 17q28 0 45 -17t17 -44q0 -28 -17 -45t-45 -17zM31 493q0 27 17.5 44t44.5 17q28 0 45 -17t17 -44q0 -28 -17 -45t-45 -17q-27 0 -44.5 17t-17.5 45z" />
    <glyph glyph-name="semicolon" unicode=";" horiz-adv-x="186" 
d="M155 55q0 -16 -9 -39l-57 -142l-45 18l39 102q-24 3 -38 19.5t-14 41.5q0 27 17.5 44t44.5 17t44.5 -17t17.5 -44zM31 493q0 27 17.5 44t44.5 17q28 0 45 -17t17 -44q0 -28 -17 -45t-45 -17q-27 0 -44.5 17t-17.5 45z" />
    <glyph glyph-name="less" unicode="&#x3c;" horiz-adv-x="280" 
d="M255 227l-240 89v121l240 88v-109l-124 -40l124 -39v-110z" />
    <glyph glyph-name="equal" unicode="=" horiz-adv-x="262" 
d="M247 530v-104h-232v104h232zM15 246v104h232v-104h-232z" />
    <glyph glyph-name="greater" unicode="&#x3e;" horiz-adv-x="280" 
d="M25 525l240 -89v-121l-240 -88v109l124 40l-124 39v110z" />
    <glyph glyph-name="question" unicode="?" horiz-adv-x="286" 
d="M84 210v204h58q15 0 15 16v210q0 16 -15 16t-15 -16v-147h-113v147q0 52 35.5 86t92.5 34t92.5 -34t35.5 -86v-210q0 -38 -19.5 -67t-53.5 -43v-110h-113zM77 55q0 27 17.5 44t44.5 17q28 0 45 -17t17 -44q0 -28 -17 -45t-45 -17q-27 0 -44.5 17t-17.5 45z" />
    <glyph glyph-name="at" unicode="@" horiz-adv-x="410" 
d="M265 750q62 0 97 -34t35 -92v-480h-96v23q-23 -23 -58 -23q-46 0 -71 32t-25 85v193q0 53 25 85t71 32q27 0 49 -16v69q0 16 -5.5 22.5t-22.5 6.5h-115q-17 0 -22.5 -6.5t-5.5 -22.5v-498q0 -16 5.5 -22.5t22.5 -6.5h248v-97h-248q-62 0 -97.5 34t-35.5 92v498
q0 58 35.5 92t97.5 34h116zM252 261q0 -21 20 -21q19 0 19 21v193q0 21 -19 21q-20 0 -20 -21v-193z" />
    <glyph glyph-name="A" unicode="A" horiz-adv-x="279" 
d="M0 0l67 750h145l67 -750h-115l-5 116h-43l-6 -116h-110zM120 208h35l-16 381z" />
    <glyph glyph-name="B" unicode="B" horiz-adv-x="292" 
d="M16 0v750h134q58 0 93 -35.5t35 -94.5v-127q0 -57 -33 -88q33 -31 33 -88v-187q0 -59 -35 -94.5t-93 -35.5h-134zM128 104h22q15 0 15 16v217q0 16 -15 16h-22v-249zM128 457h22q15 0 15 16v157q0 16 -15 16h-22v-189z" />
    <glyph glyph-name="C" unicode="C" 
d="M144 -10q-57 0 -92.5 34t-35.5 86v530q0 52 35.5 86t92.5 34q56 0 91.5 -34t35.5 -86v-197h-112v197q0 17 -15 17q-16 0 -16 -17v-530q0 -17 16 -17q15 0 15 17v212h112v-212q0 -52 -35.5 -86t-91.5 -34z" />
    <glyph glyph-name="D" unicode="D" horiz-adv-x="286" 
d="M16 0v750h126q57 0 92.5 -34t35.5 -86v-510q0 -52 -35.5 -86t-92.5 -34h-126zM128 104h14q15 0 15 16v510q0 16 -15 16h-14v-542z" />
    <glyph glyph-name="E" unicode="E" horiz-adv-x="232" 
d="M16 0v750h202v-104h-90v-204h65v-104h-65v-234h90v-104h-202z" />
    <glyph glyph-name="F" unicode="F" horiz-adv-x="217" 
d="M16 0v750h189v-104h-77v-244h68v-104h-68v-298h-112z" />
    <glyph glyph-name="G" unicode="G" horiz-adv-x="296" 
d="M144 -10q-57 0 -92.5 34t-35.5 86v530q0 52 35.5 86t92.5 34t92.5 -34t35.5 -86v-157h-113v157q0 16 -15 16t-15 -16v-530q0 -16 15 -16t15 16v162h-16v105h145v-105h-16v-162q0 -52 -35.5 -86t-92.5 -34z" />
    <glyph glyph-name="H" unicode="H" horiz-adv-x="286" 
d="M16 0v750h112v-314h30v314h112v-750h-112v327h-30v-327h-112z" />
    <glyph glyph-name="I" unicode="I" horiz-adv-x="144" 
d="M16 0v750h112v-750h-112z" />
    <glyph glyph-name="J" unicode="J" 
d="M144 -8q-57 0 -92.5 34t-35.5 86v118h113v-118q0 -16 15 -16q14 0 14 16v638h113v-638q0 -52 -35.5 -86t-91.5 -34z" />
    <glyph glyph-name="K" unicode="K" horiz-adv-x="295" 
d="M16 0v750h112v-280l55 280h110l-72 -348l74 -402h-115l-52 297v-297h-112z" />
    <glyph glyph-name="L" unicode="L" horiz-adv-x="224" 
d="M16 0v750h112v-646h87v-104h-199z" />
    <glyph glyph-name="M" unicode="M" horiz-adv-x="368" 
d="M16 0v750h113l55 -420l54 420h114v-750h-96v374l-48 -374h-47l-48 365v-365h-97z" />
    <glyph glyph-name="N" unicode="N" horiz-adv-x="296" 
d="M16 0v750h89l81 -374v374h94v-750h-88l-82 379v-379h-94z" />
    <glyph glyph-name="O" unicode="O" 
d="M144 -10q-57 0 -92.5 34t-35.5 86v530q0 52 35.5 86t92.5 34q56 0 91.5 -34t35.5 -86v-530q0 -52 -35.5 -86t-91.5 -34zM128 110q0 -17 16 -17q15 0 15 17v530q0 17 -15 17q-16 0 -16 -17v-530z" />
    <glyph glyph-name="P" unicode="P" horiz-adv-x="291" 
d="M16 0v750h112q88 0 118 -36t30 -130v-125q0 -91 -32.5 -128t-113.5 -37h-2v-294h-112zM128 398h8q27 0 27 40v158q0 50 -27 50h-8v-248z" />
    <glyph glyph-name="Q" unicode="Q" 
d="M213 -167q-106 0 -106 112v49q-42 10 -66.5 41.5t-24.5 74.5v530q0 52 35.5 86t92.5 34q56 0 91.5 -34t35.5 -86v-530q0 -43 -24 -74t-65 -41v-7q0 -34 12 -47t47 -13h5v-95h-33zM128 110q0 -17 16 -17q15 0 15 17v530q0 17 -15 17q-16 0 -16 -17v-530z" />
    <glyph glyph-name="R" unicode="R" horiz-adv-x="294" 
d="M16 0v750h119q66 0 102.5 -37t36.5 -104v-174q0 -62 -31 -99l51 -336h-117l-39 293h-3h-7v-293h-112zM128 397h8q16 0 20.5 7.5t4.5 32.5v170q0 24 -4.5 31.5t-20.5 7.5h-8v-249z" />
    <glyph glyph-name="S" unicode="S" horiz-adv-x="271" 
d="M135 -10q-60 0 -90.5 35t-30.5 97v108h111v-125q0 -11 10 -11q11 0 11 11v123q0 38 -7 55.5t-43 59.5q-47 56 -64 95.5t-17 84.5v108q0 59 33 94t89 35q54 0 86 -34.5t32 -94.5v-111h-112v128q0 8 -8 8t-8 -8v-110q0 -34 10 -53t44 -59q36 -42 53 -75t20 -53.5t3 -57.5
v-117q0 -63 -31 -98t-91 -35z" />
    <glyph glyph-name="T" unicode="T" horiz-adv-x="246" 
d="M67 0v646h-60v104h232v-104h-60v-646h-112z" />
    <glyph glyph-name="U" unicode="U" 
d="M144 -8q-57 0 -92.5 34t-35.5 86v638h113v-638q0 -16 15 -16q14 0 14 16v638h113v-638q0 -52 -35.5 -86t-91.5 -34z" />
    <glyph glyph-name="V" unicode="V" horiz-adv-x="280" 
d="M68 0l-68 750h116l25 -589l29 589h110l-67 -750h-145z" />
    <glyph glyph-name="W" unicode="W" horiz-adv-x="436" 
d="M79 0l-74 750h105l32 -482l26 482h104l27 -483l32 483h100l-74 -750h-113l-26 477l-27 -477h-112z" />
    <glyph glyph-name="X" unicode="X" horiz-adv-x="286" 
d="M2 0l63 396l-57 354h107l30 -246l29 246h104l-57 -360l63 -390h-107l-36 280l-34 -280h-105z" />
    <glyph glyph-name="Y" unicode="Y" horiz-adv-x="269" 
d="M78 0v240l-80 510h112l26 -307l25 307h110l-81 -511v-239h-112z" />
    <glyph glyph-name="Z" unicode="Z" horiz-adv-x="232" 
d="M7 0v93l104 552h-104v105h218v-96l-104 -549h104v-105h-218z" />
    <glyph glyph-name="bracketleft" unicode="[" horiz-adv-x="189" 
d="M177 641h-49v-532h49v-109h-161v750h161v-109z" />
    <glyph glyph-name="backslash" unicode="\" horiz-adv-x="232" 
d="M10 750h112l100 -750h-112z" />
    <glyph glyph-name="bracketright" unicode="]" horiz-adv-x="189" 
d="M12 0v109h49v532h-49v109h161v-750h-161z" />
    <glyph glyph-name="asciicircum" unicode="^" horiz-adv-x="296" 
d="M189 750l97 -225h-71l-67 127l-67 -127h-71l97 225h82z" />
    <glyph glyph-name="underscore" unicode="_" horiz-adv-x="230" 
d="M15 -37h200v-109h-200v109z" />
    <glyph glyph-name="a" unicode="a" horiz-adv-x="281" 
d="M94 -10q-83 0 -83 139v16q0 73 20 107.5t75 53.5l48 17v117q0 17 -15 17q-14 0 -14 -17v-87h-112v77q0 59 34.5 94.5t91.5 35.5t92 -35.5t35 -94.5v-430h-91l-12 50h-2q-10 -32 -25.5 -46t-41.5 -14zM123 120q0 -21 16 -21q15 0 15 21v123l-9 -3q-22 -7 -22 -41v-79z" />
    <glyph glyph-name="b" unicode="b" horiz-adv-x="285" 
d="M192 -10q-32 0 -44.5 17t-22.5 55h-3l-15 -62h-91v750h112v-258h3q5 18 9.5 28t12 20.5t19 15t28.5 4.5q71 0 71 -123v-333q0 -114 -79 -114zM128 148q0 -27 15 -27q16 0 16 24v260q0 24 -16 24q-15 0 -15 -27v-254z" />
    <glyph glyph-name="c" unicode="c" horiz-adv-x="283" 
d="M142 -10q-58 0 -93 35.5t-35 94.5v310q0 59 35 94.5t93 35.5q57 0 92 -35.5t35 -94.5v-137h-112v147q0 17 -15 17q-16 0 -16 -17v-330q0 -17 16 -17q15 0 15 17v147h112v-137q0 -59 -35 -94.5t-92 -35.5z" />
    <glyph glyph-name="d" unicode="d" horiz-adv-x="285" 
d="M93 -10q-79 0 -79 114v333q0 123 71 123q32 0 45 -16t24 -52h3v258h112v-750h-91l-15 62h-3q-7 -26 -12 -38.5t-19 -23t-36 -10.5zM126 145q0 -24 16 -24q15 0 15 27v254q0 27 -15 27q-16 0 -16 -24v-260z" />
    <glyph glyph-name="e" unicode="e" horiz-adv-x="283" 
d="M142 -10q-58 0 -93 35.5t-35 94.5v310q0 59 35 94.5t93 35.5q57 0 92 -35.5t35 -94.5v-176h-143v-146q0 -17 16 -17q15 0 15 17v115h112v-103q0 -59 -35 -94.5t-92 -35.5zM126 324h31v118q0 17 -15 17q-16 0 -16 -17v-118z" />
    <glyph glyph-name="f" unicode="f" horiz-adv-x="227" 
d="M41 617q0 72 38 107.5t104 35.5q21 0 33 -3v-105q-11 3 -20 3q-43 0 -43 -50v-55h63v-102h-63v-448h-112v448h-35v102h35v67z" />
    <glyph glyph-name="g" unicode="g" horiz-adv-x="285" 
d="M141 -190q-57 0 -92 35.5t-35 94.5v60h112v-76q0 -18 15 -18q16 0 16 18v179h-3q-4 -33 -16.5 -50t-44.5 -17q-79 0 -79 114v287q0 54 18.5 88.5t57.5 34.5q32 0 46 -16t28 -52h3v58h102v-610q0 -59 -35 -94.5t-93 -35.5zM126 185q0 -24 16 -24q15 0 15 27v214
q0 27 -15 27q-16 0 -16 -24v-220z" />
    <glyph glyph-name="h" unicode="h" horiz-adv-x="285" 
d="M16 0v750h112v-262h3q5 18 9 28t11.5 21.5t20.5 17t32 5.5q37 0 52 -26t15 -77v-457h-112v410q0 26 -15 26q-16 0 -16 -29v-407h-112z" />
    <glyph glyph-name="i" unicode="i" horiz-adv-x="144" 
d="M16 0v550h112v-550h-112zM5 686q0 29 19 48t48 19t48 -19t19 -48t-18.5 -48t-48.5 -19q-28 0 -47.5 19.5t-19.5 47.5z" />
    <glyph glyph-name="j" unicode="j" horiz-adv-x="145" 
d="M-1 -186q-15 0 -33 3v107h19q32 0 32 37v589h112v-594q0 -75 -31 -108.5t-99 -33.5zM6 686q0 29 19 48t48 19t48 -19t19 -48t-18.5 -48t-48.5 -19q-29 0 -48 19.5t-19 47.5z" />
    <glyph glyph-name="k" unicode="k" horiz-adv-x="290" 
d="M16 0v750h112v-396h2l43 196h114l-68 -261l68 -289h-116l-41 224h-2v-224h-112z" />
    <glyph glyph-name="l" unicode="l" horiz-adv-x="144" 
d="M16 0v750h112v-750h-112z" />
    <glyph glyph-name="m" unicode="m" horiz-adv-x="428" 
d="M16 0v550h102v-62h3q10 35 26 53.5t51 18.5q61 0 69 -72h2q11 72 72 72q40 0 56.5 -26t16.5 -77v-457h-112v412q0 24 -15 24q-16 0 -16 -27v-409h-112v412q0 24 -15 24q-16 0 -16 -27v-409h-112z" />
    <glyph glyph-name="n" unicode="n" horiz-adv-x="285" 
d="M159 412q0 24 -15 24q-16 0 -16 -27v-409h-112v550h102v-62h3q10 35 26 53.5t50 18.5q40 0 57 -26t17 -77v-457h-112v412z" />
    <glyph glyph-name="o" unicode="o" horiz-adv-x="283" 
d="M142 -10q-58 0 -93 35.5t-35 94.5v310q0 59 35 94.5t93 35.5q57 0 92 -35.5t35 -94.5v-310q0 -59 -35 -94.5t-92 -35.5zM126 110q0 -17 16 -17q15 0 15 17v330q0 17 -15 17q-16 0 -16 -17v-330z" />
    <glyph glyph-name="p" unicode="p" horiz-adv-x="285" 
d="M16 -180v730h102v-62h2q11 37 25.5 54.5t46.5 17.5q79 0 79 -114v-333q0 -123 -71 -123q-32 0 -45 15t-24 48h-3v-233h-112zM128 148q0 -27 15 -27q16 0 16 24v260q0 24 -16 24q-15 0 -15 -27v-254z" />
    <glyph glyph-name="q" unicode="q" horiz-adv-x="285" 
d="M157 -180v233h-3q-8 -22 -13 -33t-19.5 -20.5t-36.5 -9.5q-71 0 -71 123v333q0 114 79 114q32 0 46.5 -17.5t25.5 -54.5h2v62h102v-730h-112zM126 145q0 -24 16 -24q15 0 15 27v254q0 27 -15 27q-16 0 -16 -24v-260z" />
    <glyph glyph-name="r" unicode="r" horiz-adv-x="220" 
d="M16 0v550h102v-89h2q9 55 26.5 77t47.5 22q6 0 20 -2v-132h-20q-42 0 -55 -20t-13 -72v-334h-110z" />
    <glyph glyph-name="s" unicode="s" horiz-adv-x="275" 
d="M137 -10q-57 0 -92 35.5t-35 94.5v55h112v-65q0 -17 15 -17q16 0 16 17v42q0 17 -1 25.5t-8 19t-21 19.5l-56 37q-31 20 -43.5 55.5t-12.5 98.5q0 75 34 114t93 39q57 0 91.5 -35.5t34.5 -94.5v-55h-112v65q0 17 -14 17q-15 0 -15 -17v-32q0 -19 1 -28t8.5 -21.5
t22.5 -22.5l56 -37q32 -21 43 -53.5t11 -102.5q0 -75 -34.5 -114t-93.5 -39z" />
    <glyph glyph-name="t" unicode="t" horiz-adv-x="228" 
d="M163 -4q-122 0 -122 145v307h-35v102h35v116l112 20v-136h63v-102h-63v-300q0 -44 39 -44q11 0 24 4v-105q-24 -7 -53 -7z" />
    <glyph glyph-name="u" unicode="u" horiz-adv-x="285" 
d="M88 -10q-74 0 -74 108v452h112v-412q0 -24 15 -24q16 0 16 27v409h112v-550h-92l-13 62h-3q-7 -34 -23 -53t-50 -19z" />
    <glyph glyph-name="v" unicode="v" horiz-adv-x="280" 
d="M61 0l-58 550h121l18 -400h2l18 400h115l-58 -550h-158z" />
    <glyph glyph-name="w" unicode="w" horiz-adv-x="446" 
d="M62 0l-58 550h114l21 -398h2l23 398h123l24 -398h2l21 398h108l-58 -550h-135l-25 337h-2l-26 -337h-134z" />
    <glyph glyph-name="x" unicode="x" horiz-adv-x="326" 
d="M3 0l97 291l-89 259h115l43 -141h2l40 141h102l-89 -265l99 -285h-115l-52 170h-2l-49 -170h-102z" />
    <glyph glyph-name="y" unicode="y" horiz-adv-x="280" 
d="M47 -187q-21 0 -38 4v111q9 -3 25 -3q35 0 52.5 14.5t24.5 53.5l6 37h-56l-58 520h121l18 -400h2l18 400h115l-60 -540q-12 -107 -52 -152t-118 -45z" />
    <glyph glyph-name="z" unicode="z" horiz-adv-x="220" 
d="M8 0v103l102 346h-98v101h196v-103l-102 -346h106v-101h-204z" />
    <glyph glyph-name="braceleft" unicode="{" horiz-adv-x="189" 
d="M179 641q-27 0 -27 -25v-150q0 -68 -35 -91q35 -23 35 -91v-150q0 -25 27 -25v-109q-75 0 -107 29t-32 96v164q0 20 -7.5 27.5t-25.5 8.5h-3v99h3q18 0 25.5 8t7.5 28v165q0 67 32 96t107 29v-109z" />
    <glyph glyph-name="bar" unicode="|" horiz-adv-x="144" 
d="M128 750v-850h-112v850h112z" />
    <glyph glyph-name="braceright" unicode="}" horiz-adv-x="189" 
d="M10 109q27 0 27 25v150q0 68 35 91q-35 23 -35 91v150q0 25 -27 25v109q75 0 107 -29t32 -96v-165q0 -20 7.5 -28t25.5 -8h3v-99h-3q-18 -1 -25.5 -8.5t-7.5 -27.5v-164q0 -67 -32 -96t-107 -29v109z" />
    <glyph glyph-name="asciitilde" unicode="~" horiz-adv-x="300" 
d="M198 270q-23 0 -51.5 22.5t-35.5 22.5q-20 0 -20 -37h-75q-9 149 86 149q23 0 51.5 -22.5t35.5 -22.5q20 0 20 37h75q9 -149 -86 -149z" />
    <glyph glyph-name="uni00A0" unicode="&#xa0;" horiz-adv-x="100" 
 />
    <glyph glyph-name="exclamdown" unicode="&#xa1;" horiz-adv-x="156" 
d="M134 -180h-112v520h112v-520zM16 495q0 28 17.5 45t44.5 17q28 0 45 -17t17 -45q0 -27 -17 -44t-45 -17q-27 0 -44.5 17t-17.5 44z" />
    <glyph glyph-name="cent" unicode="&#xa2;" horiz-adv-x="280" 
d="M84 0v80q-34 14 -53 43.5t-19 66.5v370q0 37 19 66.5t53 43.5v80h112v-80q34 -14 53 -43.5t19 -66.5v-117h-113v117q0 16 -15 16t-15 -16v-370q0 -16 15 -16t15 16v132h113v-132q0 -37 -19 -66.5t-53 -43.5v-80h-112z" />
    <glyph glyph-name="sterling" unicode="&#xa3;" horiz-adv-x="279" 
d="M0 -1v109h32v159h-32v109h32v278q0 46 31.5 76t81.5 30q51 0 82.5 -30t31.5 -76v-123h-108v123q0 7 -6 7q-5 0 -5 -7v-278h104v-109h-104v-159h134v-109h-274z" />
    <glyph glyph-name="currency" unicode="&#xa4;" horiz-adv-x="285" 
d="M24 608l67 24l29 -78q14 2 21 2q8 0 24 -2l29 78l67 -24l-33 -90q17 -22 17 -51v-229q0 -29 -17 -52l33 -89l-67 -24l-29 77q-14 -2 -23 -2q-8 0 -22 2l-29 -77l-67 24l33 88q-19 24 -19 53v229q0 29 19 53zM132 246q0 -11 9 -11q10 0 10 11v213q0 11 -10 11q-9 0 -9 -11
v-213z" />
    <glyph glyph-name="yen" unicode="&#xa5;" horiz-adv-x="275" 
d="M18 258v93h46l-63 399h112l26 -307l25 307h110l-63 -399h46v-93h-61l-3 -19v-8h64v-93h-64v-138h-112v138h-63v93h63v9l-3 18h-60z" />
    <glyph glyph-name="brokenbar" unicode="&#xa6;" horiz-adv-x="144" 
d="M128 371v-471h-112v471h112zM16 483v267h112v-267h-112z" />
    <glyph glyph-name="section" unicode="&#xa7;" horiz-adv-x="264" 
d="M131 -110q-55 0 -88.5 36t-33.5 96v41h112v-53q0 -16 10 -16q11 0 11 16v9q0 38 -7 52.5t-45 45.5q-41 34 -62 68t-24 52t-3 47v120q0 71 45 105q-16 21 -24.5 41t-9.5 31.5t-1 32.5v17q0 59 33 94t89 35q54 0 86 -34.5t32 -94.5v-33h-112v43q0 15 -8 15t-8 -15v-2
q0 -40 4.5 -49.5t41.5 -39.5q60 -49 77 -80t17 -83v-121q0 -75 -51 -105q19 -22 28.5 -44t11 -36.5t1.5 -43.5v-14q0 -61 -33.5 -97t-88.5 -36zM113 305v-7q0 -29 4 -41.5t22 -29.5q13 0 13 16v136v6.5v6v5t-0.5 5l-1.5 4.5t-3 5.5t-4 5.5t-5.5 6t-7.5 7l-9 9q-8 0 -8 -15
v-119z" />
    <glyph glyph-name="copyright" unicode="&#xa9;" horiz-adv-x="400" 
d="M200 -10q-81 0 -132.5 49.5t-51.5 120.5v430q0 72 51.5 121t132.5 49t132.5 -49t51.5 -121v-430q0 -71 -51.5 -120.5t-132.5 -49.5zM46 160q0 -62 41.5 -102.5t112.5 -40.5t112.5 40.5t41.5 102.5v430q0 64 -41.5 104.5t-112.5 40.5t-112.5 -40.5t-41.5 -104.5v-430z
M72 160v430q0 52 35.5 86t92.5 34t92.5 -34t35.5 -86v-158h-113v158q0 16 -15 16t-15 -16v-430q0 -16 15 -16t15 16v173h113v-173q0 -52 -35.5 -86t-92.5 -34t-92.5 34t-35.5 86z" />
    <glyph glyph-name="ordfeminine" unicode="&#xaa;" horiz-adv-x="210" 
d="M72 338q-62 0 -62 103v12q0 54 15 79.5t56 40.5l36 13v86q0 13 -12 13q-10 0 -10 -13v-64h-83v57q0 44 25.5 70.5t67.5 26.5q43 0 69 -26.5t26 -70.5v-320h-68l-9 37h-1q-14 -44 -50 -44zM94 434q0 -15 11 -15q12 0 12 15v93l-7 -3q-16 -6 -16 -31v-59z" />
    <glyph glyph-name="guillemotleft" unicode="&#xab;" horiz-adv-x="381" 
d="M90 83l-85 191l85 191h124l-86 -191l86 -191h-124zM165 274l85 191h124l-86 -191l86 -191h-124z" />
    <glyph glyph-name="logicalnot" unicode="&#xac;" horiz-adv-x="232" 
d="M105 260v74h-90v109h202v-183h-112z" />
    <glyph glyph-name="uni00AD" unicode="&#xad;" horiz-adv-x="192" 
d="M177 393v-109h-162v109h162z" />
    <glyph glyph-name="registered" unicode="&#xae;" horiz-adv-x="400" 
d="M200 -10q-81 0 -132.5 49.5t-51.5 120.5v430q0 72 51.5 121t132.5 49t132.5 -49t51.5 -121v-430q0 -71 -51.5 -120.5t-132.5 -49.5zM46 160q0 -62 41.5 -102.5t112.5 -40.5t112.5 40.5t41.5 102.5v430q0 64 -41.5 104.5t-112.5 40.5t-112.5 -40.5t-41.5 -104.5v-430z
M97 72v600h92q67 0 93 -27t26 -106v-101q0 -77 -26 -104l29 -262h-94l-23 234h-5v-234h-92zM189 391h6q20 0 20 30v128q0 38 -20 38h-6v-196z" />
    <glyph glyph-name="degree" unicode="&#xb0;" horiz-adv-x="227" 
d="M113 757q46 0 75 -26t29 -64v-229q0 -38 -29 -63.5t-74 -25.5q-46 0 -75 25.5t-29 63.5v229q0 38 29 64t74 26zM104 446q0 -11 10 -11q9 0 9 11v213q0 11 -9 11q-10 0 -10 -11v-213z" />
    <glyph glyph-name="plusminus" unicode="&#xb1;" horiz-adv-x="292" 
d="M277 465v-104h-75v-65h-112v65h-75v104h75v65h112v-65h75zM15 166v104h262v-104h-262z" />
    <glyph glyph-name="uni00B2" unicode="&#xb2;" horiz-adv-x="212" 
d="M13 401q0 14 3 27t6.5 22t11 19t11.5 14.5t13.5 14l12.5 12.5t12.5 12t13 13t9.5 12t8 16.5t2 19.5v87q0 9 -9 9t-9 -9v-75h-86v79q0 35 27 58.5t65 23.5q42 0 70 -23t28 -59v-99q0 -18 -3 -32t-10 -26t-12 -18t-16.5 -18t-15.5 -16q-19 -21 -23 -26t-12 -17t-9 -20
t-1 -21v-50h102v-77h-189v147z" />
    <glyph glyph-name="uni00B3" unicode="&#xb3;" horiz-adv-x="226" 
d="M102 247q-37 0 -63 27t-26 65v69h86v-68q0 -14 11 -14h3q11 0 11 14v122q0 4 -4 8t-10 4h-56v80h53q17 0 17 14v96q0 13 -13 13h-1q-13 0 -13 -13v-69h-86v68q0 41 26.5 67t68.5 26h8q42 0 69 -27t27 -67v-93q0 -33 -24 -55q24 -24 24 -54v-122q0 -38 -26 -64.5
t-64 -26.5h-18z" />
    <glyph glyph-name="uni00B5" unicode="&#xb5;" horiz-adv-x="285" 
d="M16 -180v730h112v-412q0 -24 15 -24q16 0 16 27v409h112v-550h-92l-13 62h-3q-10 -46 -35 -57v-185h-112z" />
    <glyph glyph-name="paragraph" unicode="&#xb6;" 
d="M144 -8q-57 0 -92.5 34t-35.5 86v118h113v-118q0 -16 15 -16q14 0 14 16v299h-21q-68 0 -94.5 24.5t-26.5 97.5v94q0 36 2 52t13 36t36.5 27.5t69.5 7.5h134v-638q0 -52 -35.5 -86t-91.5 -34z" />
    <glyph glyph-name="periodcentered" unicode="&#xb7;" horiz-adv-x="154" 
d="M77 233q-27 0 -44.5 17t-17.5 45q0 27 17.5 44t44.5 17q28 0 45 -17t17 -44q0 -28 -17 -45t-45 -17z" />
    <glyph glyph-name="uni00B9" unicode="&#xb9;" horiz-adv-x="187" 
d="M8 254v76h44v344h-44v76h128v-420h38v-76h-166z" />
    <glyph glyph-name="ordmasculine" unicode="&#xba;" horiz-adv-x="210" 
d="M106 337q-44 0 -70 26.5t-26 69.5v231q0 44 26 70.5t70 26.5q42 0 68 -26.5t26 -70.5v-231q0 -43 -26 -69.5t-68 -26.5zM94 426q0 -13 12 -13q11 0 11 13v245q0 13 -11 13q-12 0 -12 -13v-245z" />
    <glyph glyph-name="guillemotright" unicode="&#xbb;" horiz-adv-x="381" 
d="M291 465l85 -191l-85 -191h-124l86 191l-86 191h124zM7 83l86 191l-86 191h124l85 -191l-85 -191h-124z" />
    <glyph glyph-name="onequarter" unicode="&#xbc;" horiz-adv-x="550" 
d="M8 254v76h44v344h-44v76h128v-420h38v-76h-166zM159 0l100 750h102l-100 -750h-102zM341 93v71l37 331h85l-34 -325h17v75h83v-75h22v-77h-22v-93h-83v93h-105z" />
    <glyph glyph-name="onehalf" unicode="&#xbd;" horiz-adv-x="547" 
d="M8 254v76h44v344h-44v76h128v-420h38v-76h-166zM159 0l100 750h102l-100 -750h-102zM347 341v79q0 35 27 58.5t65 23.5q42 0 70 -23t28 -59v-99q0 -18 -3 -32t-10 -26t-12 -18t-16.5 -18t-15.5 -16q-19 -21 -23 -26t-12 -17t-9 -20t-1 -21v-50h102v-77h-189v147
q0 14 3 27t6.5 22t11 19t11.5 14.5t13.5 14l12.5 12.5t12.5 12t13 13t9.5 12t8 16.5t2 19.5v87q0 9 -9 9t-9 -9v-75h-86z" />
    <glyph glyph-name="threequarters" unicode="&#xbe;" horiz-adv-x="589" 
d="M102 247q-37 0 -63 27t-26 65v69h86v-68q0 -14 11 -14h3q11 0 11 14v122q0 4 -4 8t-10 4h-56v80h53q17 0 17 14v96q0 13 -13 13h-1q-13 0 -13 -13v-69h-86v68q0 41 26.5 67t68.5 26h8q42 0 69 -27t27 -67v-93q0 -33 -24 -55q24 -24 24 -54v-122q0 -38 -26 -64.5
t-64 -26.5h-18zM198 0l100 750h102l-100 -750h-102zM380 93v71l37 331h85l-34 -325h17v75h83v-75h22v-77h-22v-93h-83v93h-105z" />
    <glyph glyph-name="questiondown" unicode="&#xbf;" horiz-adv-x="286" 
d="M144 -185q-57 0 -92.5 34t-35.5 86v210q0 38 19.5 67t53.5 43v90h113v-184h-58q-15 0 -15 -16v-210q0 -16 15 -16t15 16v147h113v-147q0 -52 -35.5 -86t-92.5 -34zM85 500q0 28 17 45t45 17q27 0 44.5 -17t17.5 -45q0 -27 -17.5 -44t-44.5 -17q-28 0 -45 17t-17 44z" />
    <glyph glyph-name="Agrave" unicode="&#xc0;" horiz-adv-x="279" 
d="M0 0l67 750h145l67 -750h-115l-5 116h-43l-6 -116h-110zM21 925h123l20 -135h-37zM120 208h35l-16 381z" />
    <glyph glyph-name="Aacute" unicode="&#xc1;" horiz-adv-x="279" 
d="M0 0l67 750h145l67 -750h-115l-5 116h-43l-6 -116h-110zM114 790l20 135h123l-106 -135h-37zM120 208h35l-16 381z" />
    <glyph glyph-name="Acircumflex" unicode="&#xc2;" horiz-adv-x="279" 
d="M0 0l67 750h145l67 -750h-115l-5 116h-43l-6 -116h-110zM42 790l57 135h82l57 -135h-60l-38 51l-38 -51h-60zM120 208h35l-16 381z" />
    <glyph glyph-name="Atilde" unicode="&#xc3;" horiz-adv-x="279" 
d="M0 0l67 750h145l67 -750h-115l-5 116h-43l-6 -116h-110zM6 798q-5 62 17.5 95.5t68.5 33.5q23 0 51.5 -22.5t35.5 -22.5q20 0 20 37h75q5 -62 -17.5 -95.5t-68.5 -33.5q-23 0 -51.5 22.5t-35.5 22.5q-20 0 -20 -37h-75zM120 208h35l-16 381z" />
    <glyph glyph-name="Adieresis" unicode="&#xc4;" horiz-adv-x="279" 
d="M0 0l67 750h145l67 -750h-115l-5 116h-43l-6 -116h-110zM22 847q0 25 16 40.5t41 15.5q26 0 42 -15.5t16 -40.5t-16 -41t-42 -16q-25 0 -41 16t-16 41zM120 208h35l-16 381zM143 847q0 25 16 40.5t41 15.5q26 0 42 -15.5t16 -40.5t-16 -41t-42 -16q-25 0 -41 16t-16 41z
" />
    <glyph glyph-name="Aring" unicode="&#xc5;" horiz-adv-x="279" 
d="M0 0l67 750h145l67 -750h-115l-5 116h-43l-6 -116h-110zM49 871q0 39 26 65t65 26t65 -26t26 -65t-26 -65t-65 -26t-65 26t-26 65zM115 871q0 -13 7 -21t18 -8t18 8t7 21t-7 21t-18 8t-18 -8t-7 -21zM120 208h35l-16 381z" />
    <glyph glyph-name="AE" unicode="&#xc6;" horiz-adv-x="412" 
d="M0 0l113 750h285v-104h-90v-204h65v-104h-65v-234h90v-104h-202v116h-62l-14 -116h-120zM146 208h50v410z" />
    <glyph glyph-name="Ccedilla" unicode="&#xc7;" 
d="M144 -10q-57 0 -92.5 34t-35.5 86v530q0 52 35.5 86t92.5 34q56 0 91.5 -34t35.5 -86v-197h-112v197q0 17 -15 17q-16 0 -16 -17v-530q0 -17 16 -17q15 0 15 17v212h112v-212q0 -52 -35.5 -86t-91.5 -34zM27 -175l106 135h37l-20 -135h-123z" />
    <glyph glyph-name="Egrave" unicode="&#xc8;" horiz-adv-x="232" 
d="M16 0v750h202v-104h-90v-204h65v-104h-65v-234h90v-104h-202zM0 925h123l20 -135h-37z" />
    <glyph glyph-name="Eacute" unicode="&#xc9;" horiz-adv-x="232" 
d="M16 0v750h202v-104h-90v-204h65v-104h-65v-234h90v-104h-202zM93 790l20 135h123l-106 -135h-37z" />
    <glyph glyph-name="Ecircumflex" unicode="&#xca;" horiz-adv-x="232" 
d="M16 0v750h202v-104h-90v-204h65v-104h-65v-234h90v-104h-202zM21 790l57 135h82l57 -135h-60l-38 51l-38 -51h-60z" />
    <glyph glyph-name="Edieresis" unicode="&#xcb;" horiz-adv-x="232" 
d="M16 0v750h202v-104h-90v-204h65v-104h-65v-234h90v-104h-202zM1 847q0 25 16 40.5t41 15.5q26 0 42 -15.5t16 -40.5t-16 -41t-42 -16q-25 0 -41 16t-16 41zM122 847q0 25 16 40.5t41 15.5q26 0 42 -15.5t16 -40.5t-16 -41t-42 -16q-25 0 -41 16t-16 41z" />
    <glyph glyph-name="Igrave" unicode="&#xcc;" horiz-adv-x="144" 
d="M16 0v750h112v-750h-112zM-46 925h123l20 -135h-37z" />
    <glyph glyph-name="Iacute" unicode="&#xcd;" horiz-adv-x="144" 
d="M16 0v750h112v-750h-112zM47 790l20 135h123l-106 -135h-37z" />
    <glyph glyph-name="Icircumflex" unicode="&#xce;" horiz-adv-x="144" 
d="M16 0v750h112v-750h-112zM-25 790l57 135h82l57 -135h-60l-38 51l-38 -51h-60z" />
    <glyph glyph-name="Idieresis" unicode="&#xcf;" horiz-adv-x="144" 
d="M16 0v750h112v-750h-112zM-45 847q0 25 16 40.5t41 15.5q26 0 42 -15.5t16 -40.5t-16 -41t-42 -16q-25 0 -41 16t-16 41zM76 847q0 25 16 40.5t41 15.5q26 0 42 -15.5t16 -40.5t-16 -41t-42 -16q-25 0 -41 16t-16 41z" />
    <glyph glyph-name="Eth" unicode="&#xd0;" horiz-adv-x="306" 
d="M36 0v327h-36v96h36v327h126q57 0 92.5 -34t35.5 -86v-510q0 -52 -35.5 -86t-92.5 -34h-126zM148 104h14q15 0 15 16v510q0 16 -15 16h-14v-223h18v-96h-18v-223z" />
    <glyph glyph-name="Ntilde" unicode="&#xd1;" horiz-adv-x="296" 
d="M16 0v750h89l81 -374v374h94v-750h-88l-82 379v-379h-94zM14 798q-5 62 17.5 95.5t68.5 33.5q23 0 51.5 -22.5t35.5 -22.5q20 0 20 37h75q5 -62 -17.5 -95.5t-68.5 -33.5q-23 0 -51.5 22.5t-35.5 22.5q-20 0 -20 -37h-75z" />
    <glyph glyph-name="Ograve" unicode="&#xd2;" 
d="M144 -10q-57 0 -92.5 34t-35.5 86v530q0 52 35.5 86t92.5 34q56 0 91.5 -34t35.5 -86v-530q0 -52 -35.5 -86t-91.5 -34zM25 925h123l20 -135h-37zM128 110q0 -17 16 -17q15 0 15 17v530q0 17 -15 17q-16 0 -16 -17v-530z" />
    <glyph glyph-name="Oacute" unicode="&#xd3;" 
d="M144 -10q-57 0 -92.5 34t-35.5 86v530q0 52 35.5 86t92.5 34q56 0 91.5 -34t35.5 -86v-530q0 -52 -35.5 -86t-91.5 -34zM118 790l20 135h123l-106 -135h-37zM128 110q0 -17 16 -17q15 0 15 17v530q0 17 -15 17q-16 0 -16 -17v-530z" />
    <glyph glyph-name="Ocircumflex" unicode="&#xd4;" 
d="M144 -10q-57 0 -92.5 34t-35.5 86v530q0 52 35.5 86t92.5 34q56 0 91.5 -34t35.5 -86v-530q0 -52 -35.5 -86t-91.5 -34zM46 790l57 135h82l57 -135h-60l-38 51l-38 -51h-60zM128 110q0 -17 16 -17q15 0 15 17v530q0 17 -15 17q-16 0 -16 -17v-530z" />
    <glyph glyph-name="Otilde" unicode="&#xd5;" 
d="M144 -10q-57 0 -92.5 34t-35.5 86v530q0 52 35.5 86t92.5 34q56 0 91.5 -34t35.5 -86v-530q0 -52 -35.5 -86t-91.5 -34zM10 798q-5 62 17.5 95.5t68.5 33.5q23 0 51.5 -22.5t35.5 -22.5q20 0 20 37h75q5 -62 -17.5 -95.5t-68.5 -33.5q-23 0 -51.5 22.5t-35.5 22.5
q-20 0 -20 -37h-75zM128 110q0 -17 16 -17q15 0 15 17v530q0 17 -15 17q-16 0 -16 -17v-530z" />
    <glyph glyph-name="Odieresis" unicode="&#xd6;" 
d="M144 -10q-57 0 -92.5 34t-35.5 86v530q0 52 35.5 86t92.5 34q56 0 91.5 -34t35.5 -86v-530q0 -52 -35.5 -86t-91.5 -34zM26 847q0 25 16 40.5t41 15.5q26 0 42 -15.5t16 -40.5t-16 -41t-42 -16q-25 0 -41 16t-16 41zM128 110q0 -17 16 -17q15 0 15 17v530q0 17 -15 17
q-16 0 -16 -17v-530zM147 847q0 25 16 40.5t41 15.5q26 0 42 -15.5t16 -40.5t-16 -41t-42 -16q-25 0 -41 16t-16 41z" />
    <glyph glyph-name="multiply" unicode="&#xd7;" horiz-adv-x="288" 
d="M273 332l-73 -73l-56 56l-56 -56l-73 73l56 56l-56 56l73 73l56 -56l56 56l73 -73l-56 -56z" />
    <glyph glyph-name="Oslash" unicode="&#xd8;" 
d="M23 -20l11 65q-18 27 -18 65v530q0 52 35.5 86t92.5 34q43 0 74 -20l5 30h42l-11 -66q17 -28 17 -64v-530q0 -52 -35.5 -86t-91.5 -34q-43 0 -74 20l-5 -30h-42zM128 110q0 -17 16 -17q15 0 15 17v235l-31 -187v-48zM128 400l31 186v54q0 17 -15 17q-16 0 -16 -17v-240z
" />
    <glyph glyph-name="Ugrave" unicode="&#xd9;" 
d="M144 -8q-57 0 -92.5 34t-35.5 86v638h113v-638q0 -16 15 -16q14 0 14 16v638h113v-638q0 -52 -35.5 -86t-91.5 -34zM25 925h123l20 -135h-37z" />
    <glyph glyph-name="Uacute" unicode="&#xda;" 
d="M144 -8q-57 0 -92.5 34t-35.5 86v638h113v-638q0 -16 15 -16q14 0 14 16v638h113v-638q0 -52 -35.5 -86t-91.5 -34zM118 790l20 135h123l-106 -135h-37z" />
    <glyph glyph-name="Ucircumflex" unicode="&#xdb;" 
d="M144 -8q-57 0 -92.5 34t-35.5 86v638h113v-638q0 -16 15 -16q14 0 14 16v638h113v-638q0 -52 -35.5 -86t-91.5 -34zM46 790l57 135h82l57 -135h-60l-38 51l-38 -51h-60z" />
    <glyph glyph-name="Udieresis" unicode="&#xdc;" 
d="M144 -8q-57 0 -92.5 34t-35.5 86v638h113v-638q0 -16 15 -16q14 0 14 16v638h113v-638q0 -52 -35.5 -86t-91.5 -34zM26 847q0 25 16 40.5t41 15.5q26 0 42 -15.5t16 -40.5t-16 -41t-42 -16q-25 0 -41 16t-16 41zM147 847q0 25 16 40.5t41 15.5q26 0 42 -15.5t16 -40.5
t-16 -41t-42 -16q-25 0 -41 16t-16 41z" />
    <glyph glyph-name="Yacute" unicode="&#xdd;" horiz-adv-x="269" 
d="M78 0v240l-80 510h112l26 -307l25 307h110l-81 -511v-239h-112zM108 790l20 135h123l-106 -135h-37z" />
    <glyph glyph-name="Thorn" unicode="&#xde;" horiz-adv-x="291" 
d="M16 0v750h112v-127h2q86 0 116 -36t30 -130v-125q0 -91 -32 -128t-113 -37h-3v-167h-112zM128 271h8q27 0 27 40v158q0 50 -27 50h-8v-248z" />
    <glyph glyph-name="germandbls" unicode="&#xdf;" horiz-adv-x="329" 
d="M148 107q55 0 55 45v52q0 24 -29 78.5t-29 88.5q0 37 18 75.5t18 74.5v74q0 32 -5 47.5t-20 15.5t-21.5 -13.5t-6.5 -49.5v-595h-112v598q0 74 37.5 118t99.5 44q59 0 95 -44.5t36 -117.5v-51q0 -36 -12 -63.5t-24 -46t-12 -34.5q0 -21 20 -55.5t39.5 -76t19.5 -80.5v-40
q0 -161 -167 -161v117z" />
    <glyph glyph-name="agrave" unicode="&#xe0;" horiz-adv-x="281" 
d="M94 -10q-83 0 -83 139v16q0 73 20 107.5t75 53.5l48 17v117q0 17 -15 17q-14 0 -14 -17v-87h-112v77q0 59 34.5 94.5t91.5 35.5t92 -35.5t35 -94.5v-430h-91l-12 50h-2q-10 -32 -25.5 -46t-41.5 -14zM22 725h123l20 -135h-37zM123 120q0 -21 16 -21q15 0 15 21v123l-9 -3
q-22 -7 -22 -41v-79z" />
    <glyph glyph-name="aacute" unicode="&#xe1;" horiz-adv-x="281" 
d="M94 -10q-83 0 -83 139v16q0 73 20 107.5t75 53.5l48 17v117q0 17 -15 17q-14 0 -14 -17v-87h-112v77q0 59 34.5 94.5t91.5 35.5t92 -35.5t35 -94.5v-430h-91l-12 50h-2q-10 -32 -25.5 -46t-41.5 -14zM115 590l20 135h123l-106 -135h-37zM123 120q0 -21 16 -21q15 0 15 21
v123l-9 -3q-22 -7 -22 -41v-79z" />
    <glyph glyph-name="acircumflex" unicode="&#xe2;" horiz-adv-x="281" 
d="M94 -10q-83 0 -83 139v16q0 73 20 107.5t75 53.5l48 17v117q0 17 -15 17q-14 0 -14 -17v-87h-112v77q0 59 34.5 94.5t91.5 35.5t92 -35.5t35 -94.5v-430h-91l-12 50h-2q-10 -32 -25.5 -46t-41.5 -14zM43 590l57 135h82l57 -135h-60l-38 51l-38 -51h-60zM123 120
q0 -21 16 -21q15 0 15 21v123l-9 -3q-22 -7 -22 -41v-79z" />
    <glyph glyph-name="atilde" unicode="&#xe3;" horiz-adv-x="281" 
d="M94 -10q-83 0 -83 139v16q0 73 20 107.5t75 53.5l48 17v117q0 17 -15 17q-14 0 -14 -17v-87h-112v77q0 59 34.5 94.5t91.5 35.5t92 -35.5t35 -94.5v-430h-91l-12 50h-2q-10 -32 -25.5 -46t-41.5 -14zM7 598q-5 62 17.5 95.5t68.5 33.5q23 0 51.5 -22.5t35.5 -22.5
q20 0 20 37h75q5 -62 -17.5 -95.5t-68.5 -33.5q-23 0 -51.5 22.5t-35.5 22.5q-20 0 -20 -37h-75zM123 120q0 -21 16 -21q15 0 15 21v123l-9 -3q-22 -7 -22 -41v-79z" />
    <glyph glyph-name="adieresis" unicode="&#xe4;" horiz-adv-x="281" 
d="M94 -10q-83 0 -83 139v16q0 73 20 107.5t75 53.5l48 17v117q0 17 -15 17q-14 0 -14 -17v-87h-112v77q0 59 34.5 94.5t91.5 35.5t92 -35.5t35 -94.5v-430h-91l-12 50h-2q-10 -32 -25.5 -46t-41.5 -14zM23 647q0 25 16 40.5t41 15.5q26 0 42 -15.5t16 -40.5t-16 -41
t-42 -16q-25 0 -41 16t-16 41zM123 120q0 -21 16 -21q15 0 15 21v123l-9 -3q-22 -7 -22 -41v-79zM144 647q0 25 16 40.5t41 15.5q26 0 42 -15.5t16 -40.5t-16 -41t-42 -16q-25 0 -41 16t-16 41z" />
    <glyph glyph-name="aring" unicode="&#xe5;" horiz-adv-x="281" 
d="M94 -10q-83 0 -83 139v16q0 73 20 107.5t75 53.5l48 17v117q0 17 -15 17q-14 0 -14 -17v-87h-112v77q0 59 34.5 94.5t91.5 35.5t92 -35.5t35 -94.5v-430h-91l-12 50h-2q-10 -32 -25.5 -46t-41.5 -14zM50 671q0 39 26 65t65 26t65 -26t26 -65t-26 -65t-65 -26t-65 26
t-26 65zM116 671q0 -13 7 -21t18 -8t18 8t7 21t-7 21t-18 8t-18 -8t-7 -21zM123 120q0 -21 16 -21q15 0 15 21v123l-9 -3q-22 -7 -22 -41v-79z" />
    <glyph glyph-name="ae" unicode="&#xe6;" horiz-adv-x="423" 
d="M97 -10q-86 0 -86 139v16q0 73 20 107.5t75 53.5l48 17v117q0 17 -15 17q-14 0 -14 -17v-87h-112v77q0 59 34.5 94.5t91.5 35.5q44 0 71 -30q27 30 72 30q57 0 92 -35.5t35 -94.5v-176h-143v-146q0 -17 16 -17q15 0 15 17v115h112v-103q0 -59 -35 -94.5t-92 -35.5
q-77 0 -104 63q-27 -63 -81 -63zM123 120q0 -21 16 -21q15 0 15 21v123l-9 -3q-22 -9 -22 -41v-79zM266 324h31v118q0 17 -15 17q-16 0 -16 -17v-118z" />
    <glyph glyph-name="ccedilla" unicode="&#xe7;" horiz-adv-x="283" 
d="M142 -10q-58 0 -93 35.5t-35 94.5v310q0 59 35 94.5t93 35.5q57 0 92 -35.5t35 -94.5v-137h-112v147q0 17 -15 17q-16 0 -16 -17v-330q0 -17 16 -17q15 0 15 17v147h112v-137q0 -59 -35 -94.5t-92 -35.5zM25 -175l106 135h37l-20 -135h-123z" />
    <glyph glyph-name="egrave" unicode="&#xe8;" horiz-adv-x="283" 
d="M142 -10q-58 0 -93 35.5t-35 94.5v310q0 59 35 94.5t93 35.5q57 0 92 -35.5t35 -94.5v-176h-143v-146q0 -17 16 -17q15 0 15 17v115h112v-103q0 -59 -35 -94.5t-92 -35.5zM23 725h123l20 -135h-37zM126 324h31v118q0 17 -15 17q-16 0 -16 -17v-118z" />
    <glyph glyph-name="eacute" unicode="&#xe9;" horiz-adv-x="283" 
d="M142 -10q-58 0 -93 35.5t-35 94.5v310q0 59 35 94.5t93 35.5q57 0 92 -35.5t35 -94.5v-176h-143v-146q0 -17 16 -17q15 0 15 17v115h112v-103q0 -59 -35 -94.5t-92 -35.5zM116 590l20 135h123l-106 -135h-37zM126 324h31v118q0 17 -15 17q-16 0 -16 -17v-118z" />
    <glyph glyph-name="ecircumflex" unicode="&#xea;" horiz-adv-x="283" 
d="M142 -10q-58 0 -93 35.5t-35 94.5v310q0 59 35 94.5t93 35.5q57 0 92 -35.5t35 -94.5v-176h-143v-146q0 -17 16 -17q15 0 15 17v115h112v-103q0 -59 -35 -94.5t-92 -35.5zM44 590l57 135h82l57 -135h-60l-38 51l-38 -51h-60zM126 324h31v118q0 17 -15 17q-16 0 -16 -17
v-118z" />
    <glyph glyph-name="edieresis" unicode="&#xeb;" horiz-adv-x="283" 
d="M142 -10q-58 0 -93 35.5t-35 94.5v310q0 59 35 94.5t93 35.5q57 0 92 -35.5t35 -94.5v-176h-143v-146q0 -17 16 -17q15 0 15 17v115h112v-103q0 -59 -35 -94.5t-92 -35.5zM24 647q0 25 16 40.5t41 15.5q26 0 42 -15.5t16 -40.5t-16 -41t-42 -16q-25 0 -41 16t-16 41z
M126 324h31v118q0 17 -15 17q-16 0 -16 -17v-118zM145 647q0 25 16 40.5t41 15.5q26 0 42 -15.5t16 -40.5t-16 -41t-42 -16q-25 0 -41 16t-16 41z" />
    <glyph glyph-name="igrave" unicode="&#xec;" horiz-adv-x="144" 
d="M128 550v-550h-112v550h112zM-47 725h123l20 -135h-37z" />
    <glyph glyph-name="iacute" unicode="&#xed;" horiz-adv-x="144" 
d="M128 550v-550h-112v550h112zM46 590l20 135h123l-106 -135h-37z" />
    <glyph glyph-name="icircumflex" unicode="&#xee;" horiz-adv-x="144" 
d="M128 550v-550h-112v550h112zM-26 590l57 135h82l57 -135h-60l-38 51l-38 -51h-60z" />
    <glyph glyph-name="idieresis" unicode="&#xef;" horiz-adv-x="144" 
d="M128 550v-550h-112v550h112zM-50 647q0 25 16 40.5t41 15.5q26 0 42 -15.5t16 -40.5t-16 -41t-42 -16q-25 0 -41 16t-16 41zM79 647q0 25 16 40.5t41 15.5q26 0 42 -15.5t16 -40.5t-16 -41t-42 -16q-25 0 -41 16t-16 41z" />
    <glyph glyph-name="eth" unicode="&#xf0;" horiz-adv-x="283" 
d="M142 -10q-58 0 -93 35.5t-35 94.5v260q0 60 23 95t65 35q28 0 45 -17q-11 53 -28 101l-73 -28l-27 65l71 27q-28 51 -62 92h117q19 -25 37 -57l60 23l27 -65l-56 -21q56 -136 56 -292v-218q0 -59 -35 -94.5t-92 -35.5zM126 110q0 -17 16 -17q15 0 15 17v280q0 17 -15 17
q-16 0 -16 -17v-280z" />
    <glyph glyph-name="ntilde" unicode="&#xf1;" horiz-adv-x="285" 
d="M159 412q0 24 -15 24q-16 0 -16 -27v-409h-112v550h102v-62h3q10 35 26 53.5t50 18.5q40 0 57 -26t17 -77v-457h-112v412zM9 598q-5 62 17.5 95.5t68.5 33.5q23 0 51.5 -22.5t35.5 -22.5q20 0 20 37h75q5 -62 -17.5 -95.5t-68.5 -33.5q-23 0 -51.5 22.5t-35.5 22.5
q-20 0 -20 -37h-75z" />
    <glyph glyph-name="ograve" unicode="&#xf2;" horiz-adv-x="283" 
d="M142 -10q-58 0 -93 35.5t-35 94.5v310q0 59 35 94.5t93 35.5q57 0 92 -35.5t35 -94.5v-310q0 -59 -35 -94.5t-92 -35.5zM23 725h123l20 -135h-37zM126 110q0 -17 16 -17q15 0 15 17v330q0 17 -15 17q-16 0 -16 -17v-330z" />
    <glyph glyph-name="oacute" unicode="&#xf3;" horiz-adv-x="283" 
d="M142 -10q-58 0 -93 35.5t-35 94.5v310q0 59 35 94.5t93 35.5q57 0 92 -35.5t35 -94.5v-310q0 -59 -35 -94.5t-92 -35.5zM116 590l20 135h123l-106 -135h-37zM126 110q0 -17 16 -17q15 0 15 17v330q0 17 -15 17q-16 0 -16 -17v-330z" />
    <glyph glyph-name="ocircumflex" unicode="&#xf4;" horiz-adv-x="283" 
d="M142 -10q-58 0 -93 35.5t-35 94.5v310q0 59 35 94.5t93 35.5q57 0 92 -35.5t35 -94.5v-310q0 -59 -35 -94.5t-92 -35.5zM44 590l57 135h82l57 -135h-60l-38 51l-38 -51h-60zM126 110q0 -17 16 -17q15 0 15 17v330q0 17 -15 17q-16 0 -16 -17v-330z" />
    <glyph glyph-name="otilde" unicode="&#xf5;" horiz-adv-x="283" 
d="M142 -10q-58 0 -93 35.5t-35 94.5v310q0 59 35 94.5t93 35.5q57 0 92 -35.5t35 -94.5v-310q0 -59 -35 -94.5t-92 -35.5zM8 598q-5 62 17.5 95.5t68.5 33.5q23 0 51.5 -22.5t35.5 -22.5q20 0 20 37h75q5 -62 -17.5 -95.5t-68.5 -33.5q-23 0 -51.5 22.5t-35.5 22.5
q-20 0 -20 -37h-75zM126 110q0 -17 16 -17q15 0 15 17v330q0 17 -15 17q-16 0 -16 -17v-330z" />
    <glyph glyph-name="odieresis" unicode="&#xf6;" horiz-adv-x="283" 
d="M142 -10q-58 0 -93 35.5t-35 94.5v310q0 59 35 94.5t93 35.5q57 0 92 -35.5t35 -94.5v-310q0 -59 -35 -94.5t-92 -35.5zM24 647q0 25 16 40.5t41 15.5q26 0 42 -15.5t16 -40.5t-16 -41t-42 -16q-25 0 -41 16t-16 41zM126 110q0 -17 16 -17q15 0 15 17v330q0 17 -15 17
q-16 0 -16 -17v-330zM145 647q0 25 16 40.5t41 15.5q26 0 42 -15.5t16 -40.5t-16 -41t-42 -16q-25 0 -41 16t-16 41z" />
    <glyph glyph-name="divide" unicode="&#xf7;" horiz-adv-x="262" 
d="M247 440v-104h-232v104h232zM69 252q0 27 17.5 44t44.5 17q28 0 45 -17t17 -44q0 -28 -17 -45t-45 -17q-27 0 -44.5 17t-17.5 45zM69 525q0 27 17.5 44t44.5 17q28 0 45 -17t17 -44q0 -28 -17 -45t-45 -17q-27 0 -44.5 17t-17.5 45z" />
    <glyph glyph-name="oslash" unicode="&#xf8;" horiz-adv-x="289" 
d="M145 -10q-23 0 -43 6l-14 -33h-87l34 85q-18 30 -18 72v310q0 59 35 94.5t93 35.5q23 0 42 -6l14 33h87l-34 -85q18 -30 18 -72v-310q0 -59 -35 -94.5t-92 -35.5zM129 110q0 -17 16 -17q15 0 15 17v330q0 17 -15 17q-16 0 -16 -17v-330z" />
    <glyph glyph-name="ugrave" unicode="&#xf9;" horiz-adv-x="285" 
d="M88 -10q-74 0 -74 108v452h112v-412q0 -24 15 -24q16 0 16 27v409h112v-550h-92l-13 62h-3q-7 -34 -23 -53t-50 -19zM24 725h123l20 -135h-37z" />
    <glyph glyph-name="uacute" unicode="&#xfa;" horiz-adv-x="285" 
d="M88 -10q-74 0 -74 108v452h112v-412q0 -24 15 -24q16 0 16 27v409h112v-550h-92l-13 62h-3q-7 -34 -23 -53t-50 -19zM117 590l20 135h123l-106 -135h-37z" />
    <glyph glyph-name="ucircumflex" unicode="&#xfb;" horiz-adv-x="285" 
d="M88 -10q-74 0 -74 108v452h112v-412q0 -24 15 -24q16 0 16 27v409h112v-550h-92l-13 62h-3q-7 -34 -23 -53t-50 -19zM45 590l57 135h82l57 -135h-60l-38 51l-38 -51h-60z" />
    <glyph glyph-name="udieresis" unicode="&#xfc;" horiz-adv-x="285" 
d="M88 -10q-74 0 -74 108v452h112v-412q0 -24 15 -24q16 0 16 27v409h112v-550h-92l-13 62h-3q-7 -34 -23 -53t-50 -19zM25 647q0 25 16 40.5t41 15.5q26 0 42 -15.5t16 -40.5t-16 -41t-42 -16q-25 0 -41 16t-16 41zM146 647q0 25 16 40.5t41 15.5q26 0 42 -15.5t16 -40.5
t-16 -41t-42 -16q-25 0 -41 16t-16 41z" />
    <glyph glyph-name="yacute" unicode="&#xfd;" horiz-adv-x="280" 
d="M47 -187q-21 0 -38 4v111q9 -3 25 -3q35 0 52.5 14.5t24.5 53.5l6 37h-56l-58 520h121l18 -400h2l18 400h115l-60 -540q-12 -107 -52 -152t-118 -45zM114 590l20 135h123l-106 -135h-37z" />
    <glyph glyph-name="thorn" unicode="&#xfe;" horiz-adv-x="285" 
d="M200 -10q-32 0 -45 15t-24 48h-3v-233h-112v930h102v-262h2q11 37 25.5 54.5t46.5 17.5q79 0 79 -114v-333q0 -123 -71 -123zM128 148q0 -27 15 -27q16 0 16 24v260q0 24 -16 24q-15 0 -15 -27v-254z" />
    <glyph glyph-name="ydieresis" unicode="&#xff;" horiz-adv-x="280" 
d="M47 -187q-21 0 -38 4v111q9 -3 25 -3q35 0 52.5 14.5t24.5 53.5l6 37h-56l-58 520h121l18 -400h2l18 400h115l-60 -540q-12 -107 -52 -152t-118 -45zM22 647q0 25 16 40.5t41 15.5q26 0 42 -15.5t16 -40.5t-16 -41t-42 -16q-25 0 -41 16t-16 41zM143 647q0 25 16 40.5
t41 15.5q26 0 42 -15.5t16 -40.5t-16 -41t-42 -16q-25 0 -41 16t-16 41z" />
    <glyph glyph-name="Amacron" unicode="&#x100;" horiz-adv-x="279" 
d="M0 0l67 750h145l67 -750h-115l-5 116h-43l-6 -116h-110zM41 808v96h198v-96h-198zM120 208h35l-16 381z" />
    <glyph glyph-name="amacron" unicode="&#x101;" horiz-adv-x="281" 
d="M94 -10q-83 0 -83 139v16q0 73 20 107.5t75 53.5l48 17v117q0 17 -15 17q-14 0 -14 -17v-87h-112v77q0 59 34.5 94.5t91.5 35.5t92 -35.5t35 -94.5v-430h-91l-12 50h-2q-10 -32 -25.5 -46t-41.5 -14zM42 608v96h198v-96h-198zM123 120q0 -21 16 -21q15 0 15 21v123l-9 -3
q-22 -7 -22 -41v-79z" />
    <glyph glyph-name="Abreve" unicode="&#x102;" horiz-adv-x="279" 
d="M0 0l67 750h145l67 -750h-115l-5 116h-43l-6 -116h-110zM24 925h88q-4 -51 30 -51t29 51h84q7 -64 -23 -98.5t-92 -34.5t-92.5 34.5t-23.5 98.5zM120 208h35l-16 381z" />
    <glyph glyph-name="abreve" unicode="&#x103;" horiz-adv-x="281" 
d="M94 -10q-83 0 -83 139v16q0 73 20 107.5t75 53.5l48 17v117q0 17 -15 17q-14 0 -14 -17v-87h-112v77q0 59 34.5 94.5t91.5 35.5t92 -35.5t35 -94.5v-430h-91l-12 50h-2q-10 -32 -25.5 -46t-41.5 -14zM25 725h88q-5 -51 30 -51q33 0 29 51h84q7 -64 -23 -98.5t-92 -34.5
t-92.5 34.5t-23.5 98.5zM123 120q0 -21 16 -21q15 0 15 21v123l-9 -3q-22 -7 -22 -41v-79z" />
    <glyph glyph-name="Aogonek" unicode="&#x104;" horiz-adv-x="279" 
d="M0 0l67 750h145l67 -750q-39 -43 -39 -69q0 -33 39 -33v-79q-72 -4 -108 19t-36 63q0 63 77 99h-48l-5 116h-43l-6 -116h-110zM120 208h35l-16 381z" />
    <glyph glyph-name="aogonek" unicode="&#x105;" horiz-adv-x="281" 
d="M94 -10q-83 0 -83 139v16q0 73 20 107.5t75 53.5l48 17v117q0 17 -15 17q-14 0 -14 -17v-87h-112v77q0 59 34.5 94.5t91.5 35.5t92 -35.5t35 -94.5v-430q-39 -43 -39 -69q0 -33 39 -33v-79q-72 -4 -108 19t-36 63q0 63 77 99h-24l-12 50h-2q-10 -32 -25.5 -46t-41.5 -14z
M123 120q0 -21 16 -21q15 0 15 21v123l-9 -3q-22 -7 -22 -41v-79z" />
    <glyph glyph-name="Cacute" unicode="&#x106;" 
d="M144 -10q-57 0 -92.5 34t-35.5 86v530q0 52 35.5 86t92.5 34q56 0 91.5 -34t35.5 -86v-197h-112v197q0 17 -15 17q-16 0 -16 -17v-530q0 -17 16 -17q15 0 15 17v212h112v-212q0 -52 -35.5 -86t-91.5 -34zM118 790l20 135h123l-106 -135h-37z" />
    <glyph glyph-name="cacute" unicode="&#x107;" horiz-adv-x="283" 
d="M142 -10q-58 0 -93 35.5t-35 94.5v310q0 59 35 94.5t93 35.5q57 0 92 -35.5t35 -94.5v-137h-112v147q0 17 -15 17q-16 0 -16 -17v-330q0 -17 16 -17q15 0 15 17v147h112v-137q0 -59 -35 -94.5t-92 -35.5zM116 590l20 135h123l-106 -135h-37z" />
    <glyph glyph-name="Ccircumflex" unicode="&#x108;" 
d="M144 -10q-57 0 -92.5 34t-35.5 86v530q0 52 35.5 86t92.5 34q56 0 91.5 -34t35.5 -86v-197h-112v197q0 17 -15 17q-16 0 -16 -17v-530q0 -17 16 -17q15 0 15 17v212h112v-212q0 -52 -35.5 -86t-91.5 -34zM46 790l57 135h82l57 -135h-60l-38 51l-38 -51h-60z" />
    <glyph glyph-name="ccircumflex" unicode="&#x109;" horiz-adv-x="283" 
d="M142 -10q-58 0 -93 35.5t-35 94.5v310q0 59 35 94.5t93 35.5q57 0 92 -35.5t35 -94.5v-137h-112v147q0 17 -15 17q-16 0 -16 -17v-330q0 -17 16 -17q15 0 15 17v147h112v-137q0 -59 -35 -94.5t-92 -35.5zM44 590l57 135h82l57 -135h-60l-38 51l-38 -51h-60z" />
    <glyph glyph-name="Cdotaccent" unicode="&#x10a;" 
d="M144 -10q-57 0 -92.5 34t-35.5 86v530q0 52 35.5 86t92.5 34q56 0 91.5 -34t35.5 -86v-197h-112v197q0 17 -15 17q-16 0 -16 -17v-530q0 -17 16 -17q15 0 15 17v212h112v-212q0 -52 -35.5 -86t-91.5 -34zM77 886q0 29 19 48t48 19t48 -19t19 -48t-18.5 -48t-48.5 -19
q-28 0 -47.5 19.5t-19.5 47.5z" />
    <glyph glyph-name="cdotaccent" unicode="&#x10b;" horiz-adv-x="283" 
d="M142 -10q-58 0 -93 35.5t-35 94.5v310q0 59 35 94.5t93 35.5q57 0 92 -35.5t35 -94.5v-137h-112v147q0 17 -15 17q-16 0 -16 -17v-330q0 -17 16 -17q15 0 15 17v147h112v-137q0 -59 -35 -94.5t-92 -35.5zM75 686q0 29 19 48t48 19t48 -19t19 -48t-18.5 -48t-48.5 -19
q-28 0 -47.5 19.5t-19.5 47.5z" />
    <glyph glyph-name="Ccaron" unicode="&#x10c;" 
d="M144 -10q-57 0 -92.5 34t-35.5 86v530q0 52 35.5 86t92.5 34q56 0 91.5 -34t35.5 -86v-197h-112v197q0 17 -15 17q-16 0 -16 -17v-530q0 -17 16 -17q15 0 15 17v212h112v-212q0 -52 -35.5 -86t-91.5 -34zM46 925h60l38 -51l38 51h60l-57 -135h-82z" />
    <glyph glyph-name="ccaron" unicode="&#x10d;" horiz-adv-x="283" 
d="M142 -10q-58 0 -93 35.5t-35 94.5v310q0 59 35 94.5t93 35.5q57 0 92 -35.5t35 -94.5v-137h-112v147q0 17 -15 17q-16 0 -16 -17v-330q0 -17 16 -17q15 0 15 17v147h112v-137q0 -59 -35 -94.5t-92 -35.5zM44 725h60l38 -51l38 51h60l-57 -135h-82z" />
    <glyph glyph-name="Dcaron" unicode="&#x10e;" horiz-adv-x="286" 
d="M16 0v750h126q57 0 92.5 -34t35.5 -86v-510q0 -52 -35.5 -86t-92.5 -34h-126zM42 925h60l38 -51l38 51h60l-57 -135h-82zM128 104h14q15 0 15 16v510q0 16 -15 16h-14v-542z" />
    <glyph glyph-name="dcaron" unicode="&#x10f;" horiz-adv-x="375" 
d="M93 -10q-79 0 -79 114v333q0 123 71 123q32 0 45 -16t24 -52h3v258h112v-750h-91l-15 62h-3q-7 -26 -12 -38.5t-19 -23t-36 -10.5zM126 145q0 -24 16 -24q15 0 15 27v254q0 27 -15 27q-16 0 -16 -24v-260zM293 575v175h83l-36 -175h-47z" />
    <glyph glyph-name="Dcroat" unicode="&#x110;" horiz-adv-x="306" 
d="M36 0v327h-36v96h36v327h126q57 0 92.5 -34t35.5 -86v-510q0 -52 -35.5 -86t-92.5 -34h-126zM148 104h14q15 0 15 16v510q0 16 -15 16h-14v-223h18v-96h-18v-223z" />
    <glyph glyph-name="dcroat" unicode="&#x111;" horiz-adv-x="285" 
d="M93 -10q-79 0 -79 114v333q0 123 71 123q32 0 45 -16t24 -52h3v100h-70v96h70v62h112v-62h16v-96h-16v-592h-91l-15 62h-3q-7 -26 -12 -38.5t-19 -23t-36 -10.5zM126 145q0 -24 16 -24q15 0 15 27v254q0 27 -15 27q-16 0 -16 -24v-260z" />
    <glyph glyph-name="Emacron" unicode="&#x112;" horiz-adv-x="232" 
d="M16 0v750h202v-104h-90v-204h65v-104h-65v-234h90v-104h-202zM20 808v96h198v-96h-198z" />
    <glyph glyph-name="emacron" unicode="&#x113;" horiz-adv-x="283" 
d="M142 -10q-58 0 -93 35.5t-35 94.5v310q0 59 35 94.5t93 35.5q57 0 92 -35.5t35 -94.5v-176h-143v-146q0 -17 16 -17q15 0 15 17v115h112v-103q0 -59 -35 -94.5t-92 -35.5zM43 608v96h198v-96h-198zM126 324h31v118q0 17 -15 17q-16 0 -16 -17v-118z" />
    <glyph glyph-name="Edotaccent" unicode="&#x116;" horiz-adv-x="232" 
d="M16 0v750h202v-104h-90v-204h65v-104h-65v-234h90v-104h-202zM52 886q0 29 19 48t48 19t48 -19t19 -48t-18.5 -48t-48.5 -19q-29 0 -48 19.5t-19 47.5z" />
    <glyph glyph-name="edotaccent" unicode="&#x117;" horiz-adv-x="283" 
d="M142 -10q-58 0 -93 35.5t-35 94.5v310q0 59 35 94.5t93 35.5q57 0 92 -35.5t35 -94.5v-176h-143v-146q0 -17 16 -17q15 0 15 17v115h112v-103q0 -59 -35 -94.5t-92 -35.5zM75 686q0 29 19 48t48 19t48 -19t19 -48t-18.5 -48t-48.5 -19q-28 0 -47.5 19.5t-19.5 47.5z
M126 324h31v118q0 17 -15 17q-16 0 -16 -17v-118z" />
    <glyph glyph-name="Eogonek" unicode="&#x118;" horiz-adv-x="232" 
d="M16 0v750h202v-104h-90v-204h65v-104h-65v-234h90v-104q-39 -43 -39 -69q0 -33 39 -33v-79q-72 -4 -108 19t-36 63q0 63 77 99h-135z" />
    <glyph glyph-name="eogonek" unicode="&#x119;" horiz-adv-x="283" 
d="M197 -180q-72 -4 -108 19t-36 63q0 55 61 90q-46 9 -73 43t-27 85v310q0 59 35 94.5t93 35.5q57 0 92 -35.5t35 -94.5v-176h-143v-146q0 -17 16 -17q15 0 15 17v115h112v-103q0 -89 -73 -120q-38 -42 -38 -68q0 -33 39 -33v-79zM126 324h31v118q0 17 -15 17
q-16 0 -16 -17v-118z" />
    <glyph glyph-name="Ecaron" unicode="&#x11a;" horiz-adv-x="232" 
d="M16 0v750h202v-104h-90v-204h65v-104h-65v-234h90v-104h-202zM21 925h60l38 -51l38 51h60l-57 -135h-82z" />
    <glyph glyph-name="ecaron" unicode="&#x11b;" horiz-adv-x="283" 
d="M142 -10q-58 0 -93 35.5t-35 94.5v310q0 59 35 94.5t93 35.5q57 0 92 -35.5t35 -94.5v-176h-143v-146q0 -17 16 -17q15 0 15 17v115h112v-103q0 -59 -35 -94.5t-92 -35.5zM44 725h60l38 -51l38 51h60l-57 -135h-82zM126 324h31v118q0 17 -15 17q-16 0 -16 -17v-118z" />
    <glyph glyph-name="Gcircumflex" unicode="&#x11c;" horiz-adv-x="296" 
d="M144 -10q-57 0 -92.5 34t-35.5 86v530q0 52 35.5 86t92.5 34t92.5 -34t35.5 -86v-157h-113v157q0 16 -15 16t-15 -16v-530q0 -16 15 -16t15 16v162h-16v105h145v-105h-16v-162q0 -52 -35.5 -86t-92.5 -34zM47 790l57 135h82l57 -135h-60l-38 51l-38 -51h-60z" />
    <glyph glyph-name="gcircumflex" unicode="&#x11d;" horiz-adv-x="285" 
d="M141 -190q-57 0 -92 35.5t-35 94.5v60h112v-76q0 -18 15 -18q16 0 16 18v179h-3q-4 -33 -16.5 -50t-44.5 -17q-79 0 -79 114v287q0 54 18.5 88.5t57.5 34.5q32 0 46 -16t28 -52h3v58h102v-610q0 -59 -35 -94.5t-93 -35.5zM45 590l57 135h82l57 -135h-60l-38 51l-38 -51
h-60zM126 185q0 -24 16 -24q15 0 15 27v214q0 27 -15 27q-16 0 -16 -24v-220z" />
    <glyph glyph-name="Gbreve" unicode="&#x11e;" horiz-adv-x="296" 
d="M144 -10q-57 0 -92.5 34t-35.5 86v530q0 52 35.5 86t92.5 34t92.5 -34t35.5 -86v-157h-113v157q0 16 -15 16t-15 -16v-530q0 -16 15 -16t15 16v162h-16v105h145v-105h-16v-162q0 -52 -35.5 -86t-92.5 -34zM29 925h88q-5 -51 30 -51q34 0 29 51h84q7 -64 -23 -98.5
t-92 -34.5t-92.5 34.5t-23.5 98.5z" />
    <glyph glyph-name="gbreve" unicode="&#x11f;" horiz-adv-x="285" 
d="M141 -190q-57 0 -92 35.5t-35 94.5v60h112v-76q0 -18 15 -18q16 0 16 18v179h-3q-4 -33 -16.5 -50t-44.5 -17q-79 0 -79 114v287q0 54 18.5 88.5t57.5 34.5q32 0 46 -16t28 -52h3v58h102v-610q0 -59 -35 -94.5t-93 -35.5zM27 725h88q-5 -51 30 -51q33 0 29 51h84
q7 -64 -23 -98.5t-92 -34.5t-92.5 34.5t-23.5 98.5zM126 185q0 -24 16 -24q15 0 15 27v214q0 27 -15 27q-16 0 -16 -24v-220z" />
    <glyph glyph-name="Gdotaccent" unicode="&#x120;" horiz-adv-x="296" 
d="M144 -10q-57 0 -92.5 34t-35.5 86v530q0 52 35.5 86t92.5 34t92.5 -34t35.5 -86v-157h-113v157q0 16 -15 16t-15 -16v-530q0 -16 15 -16t15 16v162h-16v105h145v-105h-16v-162q0 -52 -35.5 -86t-92.5 -34zM78 886q0 29 19 48t48 19t48 -19t19 -48t-18.5 -48t-48.5 -19
q-29 0 -48 19.5t-19 47.5z" />
    <glyph glyph-name="gdotaccent" unicode="&#x121;" horiz-adv-x="285" 
d="M141 -190q-57 0 -92 35.5t-35 94.5v60h112v-76q0 -18 15 -18q16 0 16 18v179h-3q-4 -33 -16.5 -50t-44.5 -17q-79 0 -79 114v287q0 54 18.5 88.5t57.5 34.5q32 0 46 -16t28 -52h3v58h102v-610q0 -59 -35 -94.5t-93 -35.5zM76 686q0 29 19 48t48 19t48 -19t19 -48
t-18.5 -48t-48.5 -19q-29 0 -48 19.5t-19 47.5zM126 185q0 -24 16 -24q15 0 15 27v214q0 27 -15 27q-16 0 -16 -24v-220z" />
    <glyph glyph-name="uni0122" unicode="&#x122;" horiz-adv-x="296" 
d="M144 -10q-57 0 -92.5 34t-35.5 86v530q0 52 35.5 86t92.5 34t92.5 -34t35.5 -86v-157h-113v157q0 16 -15 16t-15 -16v-530q0 -16 15 -16t15 16v162h-16v105h145v-105h-16v-162q0 -52 -35.5 -86t-92.5 -34zM99 -86q0 20 13 32.5t33 12.5t33 -12.5t13 -32.5q0 -11 -7 -29
l-42 -106l-34 14l29 76q-38 5 -38 45z" />
    <glyph glyph-name="uni0123" unicode="&#x123;" horiz-adv-x="285" 
d="M141 -190q-57 0 -92 35.5t-35 94.5v60h112v-76q0 -18 15 -18q16 0 16 18v179h-3q-4 -33 -16.5 -50t-44.5 -17q-79 0 -79 114v287q0 54 18.5 88.5t57.5 34.5q32 0 46 -16t28 -52h3v58h102v-610q0 -59 -35 -94.5t-93 -35.5zM97 651q0 11 7 29l42 106l34 -14l-29 -76
q38 -5 38 -45q0 -20 -13 -32.5t-33 -12.5t-33 12.5t-13 32.5zM126 185q0 -24 16 -24q15 0 15 27v214q0 27 -15 27q-16 0 -16 -24v-220z" />
    <glyph glyph-name="Hcircumflex" unicode="&#x124;" horiz-adv-x="286" 
d="M16 0v750h112v-314h30v314h112v-750h-112v327h-30v-327h-112zM45 790l57 135h82l57 -135h-60l-38 51l-38 -51h-60z" />
    <glyph glyph-name="hcircumflex" unicode="&#x125;" horiz-adv-x="285" 
d="M16 0v750h112v-262h3q5 18 9 28t11.5 21.5t20.5 17t32 5.5q37 0 52 -26t15 -77v-457h-112v410q0 26 -15 26q-16 0 -16 -29v-407h-112zM45 790l57 135h82l57 -135h-60l-38 51l-38 -51h-60z" />
    <glyph glyph-name="Hbar" unicode="&#x126;" horiz-adv-x="298" 
d="M22 0v563h-22v96h22v91h112v-91h30v91h112v-91h22v-96h-22v-563h-112v327h-30v-327h-112zM134 436h30v127h-30v-127z" />
    <glyph glyph-name="hbar" unicode="&#x127;" horiz-adv-x="285" 
d="M16 0v592h-16v96h16v62h112v-62h70v-96h-70v-104h3q5 18 9 28t11.5 21.5t20.5 17t32 5.5q37 0 52 -26t15 -77v-457h-112v410q0 26 -15 26q-16 0 -16 -29v-407h-112z" />
    <glyph glyph-name="Itilde" unicode="&#x128;" horiz-adv-x="144" 
d="M16 0v750h112v-750h-112zM-61 798q-5 62 17.5 95.5t68.5 33.5q23 0 51.5 -22.5t35.5 -22.5q20 0 20 37h75q5 -62 -17.5 -95.5t-68.5 -33.5q-23 0 -51.5 22.5t-35.5 22.5q-20 0 -20 -37h-75z" />
    <glyph glyph-name="itilde" unicode="&#x129;" horiz-adv-x="144" 
d="M128 550v-550h-112v550h112zM-22 598q-9 129 55 129q18 0 28.5 -11.5t17.5 -22.5t16 -11q15 0 15 37h55q5 -65 -7 -97t-49 -32q-14 0 -23.5 7t-14 15.5t-10 15.5t-12.5 7q-16 0 -16 -37h-55z" />
    <glyph glyph-name="Imacron" unicode="&#x12a;" horiz-adv-x="144" 
d="M16 0v750h112v-750h-112zM-26 808v96h198v-96h-198z" />
    <glyph glyph-name="imacron" unicode="&#x12b;" horiz-adv-x="144" 
d="M128 550v-550h-112v550h112zM-8 608v96h161v-96h-161z" />
    <glyph glyph-name="Iogonek" unicode="&#x12e;" horiz-adv-x="144" 
d="M16 0v750h112v-750q-39 -43 -39 -69q0 -33 39 -33v-79q-72 -4 -108 19t-36 63q0 63 77 99h-45z" />
    <glyph glyph-name="iogonek" unicode="&#x12f;" horiz-adv-x="144" 
d="M128 550v-550q-39 -43 -39 -69q0 -33 39 -33v-79q-72 -4 -108 19t-36 63q0 63 77 99h-45v550h112zM5 686q0 29 19 48t48 19t48 -19t19 -48t-18.5 -48t-48.5 -19q-28 0 -47.5 19.5t-19.5 47.5z" />
    <glyph glyph-name="Idotaccent" unicode="&#x130;" horiz-adv-x="144" 
d="M16 0v750h112v-750h-112zM6 886q0 29 19 48t48 19t48 -19t19 -48t-18.5 -48t-48.5 -19q-29 0 -48 19.5t-19 47.5z" />
    <glyph glyph-name="dotlessi" unicode="&#x131;" horiz-adv-x="144" 
d="M128 550v-550h-112v550h112z" />
    <glyph glyph-name="IJ" unicode="&#x132;" horiz-adv-x="431" 
d="M16 0v750h112v-750h-112zM160 112v118h113v-118q0 -16 15 -16q14 0 14 16v638h113v-638q0 -52 -35.5 -86t-91.5 -34q-57 0 -92.5 34t-35.5 86z" />
    <glyph glyph-name="ij" unicode="&#x133;" horiz-adv-x="289" 
d="M16 0v550h112v-550h-112zM5 686q0 29 19 48t48 19t48 -19t19 -48t-18.5 -48t-48.5 -19q-28 0 -47.5 19.5t-19.5 47.5zM110 -183v107h19q32 0 32 37v589h112v-594q0 -75 -31 -108.5t-99 -33.5q-15 0 -33 3zM150 686q0 29 19 48t48 19t48 -19t19 -48t-18.5 -48t-48.5 -19
q-29 0 -48 19.5t-19 47.5z" />
    <glyph glyph-name="Jcircumflex" unicode="&#x134;" 
d="M144 -8q-57 0 -92.5 34t-35.5 86v118h113v-118q0 -16 15 -16q14 0 14 16v638h113v-638q0 -52 -35.5 -86t-91.5 -34zM117 790l57 135h82l57 -135h-60l-38 51l-38 -51h-60z" />
    <glyph glyph-name="jcircumflex" unicode="&#x135;" horiz-adv-x="145" 
d="M-1 -186q-15 0 -33 3v107h19q32 0 32 37v589h112v-594q0 -75 -31 -108.5t-99 -33.5zM-25 590l57 135h82l57 -135h-60l-38 51l-38 -51h-60z" />
    <glyph glyph-name="uni0136" unicode="&#x136;" horiz-adv-x="295" 
d="M16 0v750h112v-280l55 280h110l-72 -348l74 -402h-115l-52 297v-297h-112zM99 -86q0 20 13 32.5t33 12.5t33 -12.5t13 -32.5q0 -11 -7 -29l-42 -106l-34 14l29 76q-38 5 -38 45z" />
    <glyph glyph-name="uni0137" unicode="&#x137;" horiz-adv-x="290" 
d="M16 0v750h112v-396h2l43 196h114l-68 -261l68 -289h-116l-41 224h-2v-224h-112zM99 -86q0 20 13 32.5t33 12.5t33 -12.5t13 -32.5q0 -11 -7 -29l-42 -106l-34 14l29 76q-38 5 -38 45z" />
    <glyph glyph-name="kgreenlandic" unicode="&#x138;" horiz-adv-x="290" 
d="M16 0v550h112v-196h2l43 196h114l-68 -261l68 -289h-116l-41 224h-2v-224h-112z" />
    <glyph glyph-name="Lacute" unicode="&#x139;" horiz-adv-x="224" 
d="M16 0v750h112v-646h87v-104h-199zM52 790l20 135h123l-106 -135h-37z" />
    <glyph glyph-name="lacute" unicode="&#x13a;" horiz-adv-x="144" 
d="M16 0v750h112v-750h-112zM46 790l20 135h123l-106 -135h-37z" />
    <glyph glyph-name="uni013B" unicode="&#x13b;" horiz-adv-x="224" 
d="M16 0v750h112v-646h87v-104h-199zM65 -86q0 20 13 32.5t33 12.5t33 -12.5t13 -32.5q0 -11 -7 -29l-42 -106l-34 14l29 76q-38 5 -38 45z" />
    <glyph glyph-name="uni013C" unicode="&#x13c;" horiz-adv-x="144" 
d="M16 0v750h112v-750h-112zM26 -86q0 20 13 32.5t33 12.5t33 -12.5t13 -32.5q0 -11 -7 -29l-42 -106l-34 14l29 76q-38 5 -38 45z" />
    <glyph glyph-name="Lcaron" unicode="&#x13d;" horiz-adv-x="244" 
d="M152 575v175h93l-36 -175h-57zM16 0v750h112v-646h87v-104h-199z" />
    <glyph glyph-name="lcaron" unicode="&#x13e;" horiz-adv-x="249" 
d="M157 575v175h93l-36 -175h-57zM16 0v750h112v-750h-112z" />
    <glyph glyph-name="Ldot" unicode="&#x13f;" horiz-adv-x="224" 
d="M16 0v750h112v-646h87v-104h-199zM146 375q0 17 11 27.5t28 10.5t28 -10.5t11 -27.5q0 -18 -11 -28.5t-28 -10.5t-28 10.5t-11 28.5z" />
    <glyph glyph-name="ldot" unicode="&#x140;" horiz-adv-x="280" 
d="M16 0v750h112v-750h-112zM151 365q0 27 17.5 44t44.5 17q28 0 45 -17t17 -44q0 -28 -17 -45t-45 -17q-27 0 -44.5 17t-17.5 45z" />
    <glyph glyph-name="Lslash" unicode="&#x141;" horiz-adv-x="244" 
d="M4 266v117l32 11v356h112v-317l59 20v-117l-59 -20v-212h87v-104h-199v277z" />
    <glyph glyph-name="lslash" unicode="&#x142;" horiz-adv-x="240" 
d="M18 270v113l39 13v354h112v-315l52 18v-113l-52 -18v-322h-112v283z" />
    <glyph glyph-name="Nacute" unicode="&#x143;" horiz-adv-x="296" 
d="M16 0v750h89l81 -374v374h94v-750h-88l-82 379v-379h-94zM122 790l20 135h123l-106 -135h-37z" />
    <glyph glyph-name="nacute" unicode="&#x144;" horiz-adv-x="285" 
d="M159 412q0 24 -15 24q-16 0 -16 -27v-409h-112v550h102v-62h3q10 35 26 53.5t50 18.5q40 0 57 -26t17 -77v-457h-112v412zM117 590l20 135h123l-106 -135h-37z" />
    <glyph glyph-name="uni0145" unicode="&#x145;" horiz-adv-x="296" 
d="M16 0v750h89l81 -374v374h94v-750h-88l-82 379v-379h-94zM102 -86q0 20 13 32.5t33 12.5t33 -12.5t13 -32.5q0 -11 -7 -29l-42 -106l-34 14l29 76q-38 5 -38 45z" />
    <glyph glyph-name="uni0146" unicode="&#x146;" horiz-adv-x="285" 
d="M159 412q0 24 -15 24q-16 0 -16 -27v-409h-112v550h102v-62h3q10 35 26 53.5t50 18.5q40 0 57 -26t17 -77v-457h-112v412zM97 -86q0 20 13 32.5t33 12.5t33 -12.5t13 -32.5q0 -11 -7 -29l-42 -106l-34 14l29 76q-38 5 -38 45z" />
    <glyph glyph-name="Ncaron" unicode="&#x147;" horiz-adv-x="296" 
d="M16 0v750h89l81 -374v374h94v-750h-88l-82 379v-379h-94zM50 925h60l38 -51l38 51h60l-57 -135h-82z" />
    <glyph glyph-name="ncaron" unicode="&#x148;" horiz-adv-x="285" 
d="M159 412q0 24 -15 24q-16 0 -16 -27v-409h-112v550h102v-62h3q10 35 26 53.5t50 18.5q40 0 57 -26t17 -77v-457h-112v412zM45 725h60l38 -51l38 51h60l-57 -135h-82z" />
    <glyph glyph-name="napostrophe" unicode="&#x149;" horiz-adv-x="294" 
d="M168 412q0 24 -15 24q-16 0 -16 -27v-409h-112v550h102v-62h3q10 35 26 53.5t50 18.5q40 0 57 -26t17 -77v-457h-112v412zM-3 713q0 22 14.5 36.5t37.5 14.5t37.5 -14.5t14.5 -36.5q0 -13 -8 -33l-47 -118l-38 15l33 85q-20 2 -32 16t-12 35z" />
    <glyph glyph-name="Eng" unicode="&#x14a;" horiz-adv-x="296" 
d="M159 -186q-15 0 -33 3v107h19q32 0 32 37v108l-67 310v-379h-94v750h89l81 -374v374h94v-794q0 -74 -29.5 -108t-91.5 -34z" />
    <glyph glyph-name="eng" unicode="&#x14b;" horiz-adv-x="285" 
d="M141 -186q-15 0 -33 3v107h19q32 0 32 37v451q0 24 -15 24q-16 0 -16 -27v-409h-112v550h102v-62h3q10 35 26 53.5t50 18.5q40 0 57 -26t17 -77v-501q0 -75 -31 -108.5t-99 -33.5z" />
    <glyph glyph-name="Omacron" unicode="&#x14c;" 
d="M144 -10q-57 0 -92.5 34t-35.5 86v530q0 52 35.5 86t92.5 34q56 0 91.5 -34t35.5 -86v-530q0 -52 -35.5 -86t-91.5 -34zM45 808v96h198v-96h-198zM128 110q0 -17 16 -17q15 0 15 17v530q0 17 -15 17q-16 0 -16 -17v-530z" />
    <glyph glyph-name="omacron" unicode="&#x14d;" horiz-adv-x="283" 
d="M142 -10q-58 0 -93 35.5t-35 94.5v310q0 59 35 94.5t93 35.5q57 0 92 -35.5t35 -94.5v-310q0 -59 -35 -94.5t-92 -35.5zM43 608v96h198v-96h-198zM126 110q0 -17 16 -17q15 0 15 17v330q0 17 -15 17q-16 0 -16 -17v-330z" />
    <glyph glyph-name="Ohungarumlaut" unicode="&#x150;" 
d="M144 -10q-57 0 -92.5 34t-35.5 86v530q0 52 35.5 86t92.5 34q56 0 91.5 -34t35.5 -86v-530q0 -52 -35.5 -86t-91.5 -34zM40 790l20 135h123l-106 -135h-37zM128 110q0 -17 16 -17q15 0 15 17v530q0 17 -15 17q-16 0 -16 -17v-530zM165 790l20 135h123l-106 -135h-37z" />
    <glyph glyph-name="ohungarumlaut" unicode="&#x151;" horiz-adv-x="283" 
d="M142 -10q-58 0 -93 35.5t-35 94.5v310q0 59 35 94.5t93 35.5q57 0 92 -35.5t35 -94.5v-310q0 -59 -35 -94.5t-92 -35.5zM38 590l20 135h123l-106 -135h-37zM126 110q0 -17 16 -17q15 0 15 17v330q0 17 -15 17q-16 0 -16 -17v-330zM163 590l20 135h123l-106 -135h-37z" />
    <glyph glyph-name="OE" unicode="&#x152;" horiz-adv-x="374" 
d="M144 0q-57 0 -92.5 34t-35.5 86v510q0 52 35.5 86t92.5 34h216v-104h-90v-204h65v-104h-65v-234h90v-104h-216zM129 120q0 -16 15 -16h14v542h-14q-15 0 -15 -16v-510z" />
    <glyph glyph-name="oe" unicode="&#x153;" horiz-adv-x="426" 
d="M142 -10q-58 0 -93 35.5t-35 94.5v310q0 59 35 94.5t93 35.5q42 0 71 -23q29 23 72 23q57 0 92 -35.5t35 -94.5v-176h-143v-146q0 -17 16 -17q15 0 15 17v115h112v-103q0 -59 -35 -94.5t-92 -35.5q-43 0 -72 23q-29 -23 -71 -23zM126 110q0 -17 16 -17q15 0 15 17v330
q0 17 -15 17q-16 0 -16 -17v-330zM269 324h31v118q0 17 -15 17q-16 0 -16 -17v-118z" />
    <glyph glyph-name="Racute" unicode="&#x154;" horiz-adv-x="294" 
d="M16 0v750h119q66 0 102.5 -37t36.5 -104v-174q0 -62 -31 -99l51 -336h-117l-39 293h-3h-7v-293h-112zM121 790l20 135h123l-106 -135h-37zM128 397h8q16 0 20.5 7.5t4.5 32.5v170q0 24 -4.5 31.5t-20.5 7.5h-8v-249z" />
    <glyph glyph-name="racute" unicode="&#x155;" horiz-adv-x="220" 
d="M16 0v550h102v-89h2q9 55 26.5 77t47.5 22q6 0 20 -2v-132h-20q-42 0 -55 -20t-13 -72v-334h-110zM84 590l20 135h123l-106 -135h-37z" />
    <glyph glyph-name="uni0156" unicode="&#x156;" horiz-adv-x="294" 
d="M16 0v750h119q66 0 102.5 -37t36.5 -104v-174q0 -62 -31 -99l51 -336h-117l-39 293h-3h-7v-293h-112zM101 -86q0 20 13 32.5t33 12.5t33 -12.5t13 -32.5q0 -11 -7 -29l-42 -106l-34 14l29 76q-38 5 -38 45zM128 397h8q16 0 20.5 7.5t4.5 32.5v170q0 24 -4.5 31.5
t-20.5 7.5h-8v-249z" />
    <glyph glyph-name="uni0157" unicode="&#x157;" horiz-adv-x="220" 
d="M16 0v550h102v-89h2q9 55 26.5 77t47.5 22q6 0 20 -2v-132h-20q-42 0 -55 -20t-13 -72v-334h-110zM24 -86q0 20 13 32.5t33 12.5t33 -12.5t13 -32.5q0 -11 -7 -29l-42 -106l-34 14l29 76q-38 5 -38 45z" />
    <glyph glyph-name="Rcaron" unicode="&#x158;" horiz-adv-x="294" 
d="M16 0v750h119q66 0 102.5 -37t36.5 -104v-174q0 -62 -31 -99l51 -336h-117l-39 293h-3h-7v-293h-112zM49 925h60l38 -51l38 51h60l-57 -135h-82zM128 397h8q16 0 20.5 7.5t4.5 32.5v170q0 24 -4.5 31.5t-20.5 7.5h-8v-249z" />
    <glyph glyph-name="rcaron" unicode="&#x159;" horiz-adv-x="220" 
d="M16 0v550h102v-89h2q9 55 26.5 77t47.5 22q6 0 20 -2v-132h-20q-42 0 -55 -20t-13 -72v-334h-110zM12 725h60l38 -51l38 51h60l-57 -135h-82z" />
    <glyph glyph-name="Sacute" unicode="&#x15a;" horiz-adv-x="271" 
d="M135 -10q-60 0 -90.5 35t-30.5 97v108h111v-125q0 -11 10 -11q11 0 11 11v123q0 38 -7 55.5t-43 59.5q-47 56 -64 95.5t-17 84.5v108q0 59 33 94t89 35q54 0 86 -34.5t32 -94.5v-111h-112v128q0 8 -8 8t-8 -8v-110q0 -34 10 -53t44 -59q36 -42 53 -75t20 -53.5t3 -57.5
v-117q0 -63 -31 -98t-91 -35zM110 790l20 135h123l-106 -135h-37z" />
    <glyph glyph-name="sacute" unicode="&#x15b;" horiz-adv-x="275" 
d="M137 -10q-57 0 -92 35.5t-35 94.5v55h112v-65q0 -17 15 -17q16 0 16 17v42q0 17 -1 25.5t-8 19t-21 19.5l-56 37q-31 20 -43.5 55.5t-12.5 98.5q0 75 34 114t93 39q57 0 91.5 -35.5t34.5 -94.5v-55h-112v65q0 17 -14 17q-15 0 -15 -17v-32q0 -19 1 -28t8.5 -21.5
t22.5 -22.5l56 -37q32 -21 43 -53.5t11 -102.5q0 -75 -34.5 -114t-93.5 -39zM112 590l20 135h123l-106 -135h-37z" />
    <glyph glyph-name="Scircumflex" unicode="&#x15c;" horiz-adv-x="271" 
d="M135 -10q-60 0 -90.5 35t-30.5 97v108h111v-125q0 -11 10 -11q11 0 11 11v123q0 38 -7 55.5t-43 59.5q-47 56 -64 95.5t-17 84.5v108q0 59 33 94t89 35q54 0 86 -34.5t32 -94.5v-111h-112v128q0 8 -8 8t-8 -8v-110q0 -34 10 -53t44 -59q36 -42 53 -75t20 -53.5t3 -57.5
v-117q0 -63 -31 -98t-91 -35zM38 790l57 135h82l57 -135h-60l-38 51l-38 -51h-60z" />
    <glyph glyph-name="scircumflex" unicode="&#x15d;" horiz-adv-x="275" 
d="M137 -10q-57 0 -92 35.5t-35 94.5v55h112v-65q0 -17 15 -17q16 0 16 17v42q0 17 -1 25.5t-8 19t-21 19.5l-56 37q-31 20 -43.5 55.5t-12.5 98.5q0 75 34 114t93 39q57 0 91.5 -35.5t34.5 -94.5v-55h-112v65q0 17 -14 17q-15 0 -15 -17v-32q0 -19 1 -28t8.5 -21.5
t22.5 -22.5l56 -37q32 -21 43 -53.5t11 -102.5q0 -75 -34.5 -114t-93.5 -39zM40 590l57 135h82l57 -135h-60l-38 51l-38 -51h-60z" />
    <glyph glyph-name="Scedilla" unicode="&#x15e;" horiz-adv-x="271" 
d="M135 -10q-60 0 -90.5 35t-30.5 97v108h111v-125q0 -11 10 -11q11 0 11 11v123q0 38 -7 55.5t-43 59.5q-47 56 -64 95.5t-17 84.5v108q0 59 33 94t89 35q54 0 86 -34.5t32 -94.5v-111h-112v128q0 8 -8 8t-8 -8v-110q0 -34 10 -53t44 -59q36 -42 53 -75t20 -53.5t3 -57.5
v-117q0 -63 -31 -98t-91 -35zM19 -175l106 135h37l-20 -135h-123z" />
    <glyph glyph-name="scedilla" unicode="&#x15f;" horiz-adv-x="275" 
d="M137 -10q-57 0 -92 35.5t-35 94.5v55h112v-65q0 -17 15 -17q16 0 16 17v42q0 17 -1 25.5t-8 19t-21 19.5l-56 37q-31 20 -43.5 55.5t-12.5 98.5q0 75 34 114t93 39q57 0 91.5 -35.5t34.5 -94.5v-55h-112v65q0 17 -14 17q-15 0 -15 -17v-32q0 -19 1 -28t8.5 -21.5
t22.5 -22.5l56 -37q32 -21 43 -53.5t11 -102.5q0 -75 -34.5 -114t-93.5 -39zM21 -175l106 135h37l-20 -135h-123z" />
    <glyph glyph-name="Scaron" unicode="&#x160;" horiz-adv-x="271" 
d="M135 -10q-60 0 -90.5 35t-30.5 97v108h111v-125q0 -11 10 -11q11 0 11 11v123q0 38 -7 55.5t-43 59.5q-47 56 -64 95.5t-17 84.5v108q0 59 33 94t89 35q54 0 86 -34.5t32 -94.5v-111h-112v128q0 8 -8 8t-8 -8v-110q0 -34 10 -53t44 -59q36 -42 53 -75t20 -53.5t3 -57.5
v-117q0 -63 -31 -98t-91 -35zM38 925h60l38 -51l38 51h60l-57 -135h-82z" />
    <glyph glyph-name="scaron" unicode="&#x161;" horiz-adv-x="275" 
d="M137 -10q-57 0 -92 35.5t-35 94.5v55h112v-65q0 -17 15 -17q16 0 16 17v42q0 17 -1 25.5t-8 19t-21 19.5l-56 37q-31 20 -43.5 55.5t-12.5 98.5q0 75 34 114t93 39q57 0 91.5 -35.5t34.5 -94.5v-55h-112v65q0 17 -14 17q-15 0 -15 -17v-32q0 -19 1 -28t8.5 -21.5
t22.5 -22.5l56 -37q32 -21 43 -53.5t11 -102.5q0 -75 -34.5 -114t-93.5 -39zM40 725h60l38 -51l38 51h60l-57 -135h-82z" />
    <glyph glyph-name="uni0162" unicode="&#x162;" horiz-adv-x="246" 
d="M67 0v646h-60v104h232v-104h-60v-646h-112zM6 -175l106 135h37l-20 -135h-123z" />
    <glyph glyph-name="uni0163" unicode="&#x163;" horiz-adv-x="228" 
d="M163 -4q-122 0 -122 145v307h-35v102h35v116l112 20v-136h63v-102h-63v-300q0 -44 39 -44q11 0 24 4v-105q-24 -7 -53 -7zM28 -175l106 135h37l-20 -135h-123z" />
    <glyph glyph-name="Tcaron" unicode="&#x164;" horiz-adv-x="246" 
d="M67 0v646h-60v104h232v-104h-60v-646h-112zM25 925h60l38 -51l38 51h60l-57 -135h-82z" />
    <glyph glyph-name="tcaron" unicode="&#x165;" horiz-adv-x="266" 
d="M163 -4q-122 0 -122 145v307h-35v102h35v116l112 20v-136h63v-102h-63v-300q0 -44 39 -44q11 0 24 4v-105q-24 -7 -53 -7zM179 595v155h84l-36 -155h-48z" />
    <glyph glyph-name="Tbar" unicode="&#x166;" horiz-adv-x="246" 
d="M67 0v296h-43v96h43v254h-60v104h232v-104h-60v-254h43v-96h-43v-296h-112z" />
    <glyph glyph-name="tbar" unicode="&#x167;" horiz-adv-x="228" 
d="M163 -4q-122 0 -122 145v102h-32v96h32v109h-35v102h35v116l112 20v-136h63v-102h-63v-109h54v-96h-54v-95q0 -44 39 -44q11 0 24 4v-105q-24 -7 -53 -7z" />
    <glyph glyph-name="Utilde" unicode="&#x168;" 
d="M144 -8q-57 0 -92.5 34t-35.5 86v638h113v-638q0 -16 15 -16q14 0 14 16v638h113v-638q0 -52 -35.5 -86t-91.5 -34zM10 798q-5 62 17.5 95.5t68.5 33.5q23 0 51.5 -22.5t35.5 -22.5q20 0 20 37h75q5 -62 -17.5 -95.5t-68.5 -33.5q-23 0 -51.5 22.5t-35.5 22.5
q-20 0 -20 -37h-75z" />
    <glyph glyph-name="utilde" unicode="&#x169;" horiz-adv-x="285" 
d="M88 -10q-74 0 -74 108v452h112v-412q0 -24 15 -24q16 0 16 27v409h112v-550h-92l-13 62h-3q-7 -34 -23 -53t-50 -19zM9 598q-5 62 17.5 95.5t68.5 33.5q23 0 51.5 -22.5t35.5 -22.5q20 0 20 37h75q5 -62 -17.5 -95.5t-68.5 -33.5q-23 0 -51.5 22.5t-35.5 22.5
q-20 0 -20 -37h-75z" />
    <glyph glyph-name="Umacron" unicode="&#x16a;" 
d="M144 -8q-57 0 -92.5 34t-35.5 86v638h113v-638q0 -16 15 -16q14 0 14 16v638h113v-638q0 -52 -35.5 -86t-91.5 -34zM45 808v96h198v-96h-198z" />
    <glyph glyph-name="umacron" unicode="&#x16b;" horiz-adv-x="285" 
d="M88 -10q-74 0 -74 108v452h112v-412q0 -24 15 -24q16 0 16 27v409h112v-550h-92l-13 62h-3q-7 -34 -23 -53t-50 -19zM44 608v96h198v-96h-198z" />
    <glyph glyph-name="Ubreve" unicode="&#x16c;" 
d="M144 -8q-57 0 -92.5 34t-35.5 86v638h113v-638q0 -16 15 -16q14 0 14 16v638h113v-638q0 -52 -35.5 -86t-91.5 -34zM28 925h88q-4 -51 30 -51t29 51h84q7 -64 -23 -98.5t-92 -34.5t-92.5 34.5t-23.5 98.5z" />
    <glyph glyph-name="ubreve" unicode="&#x16d;" horiz-adv-x="285" 
d="M88 -10q-74 0 -74 108v452h112v-412q0 -24 15 -24q16 0 16 27v409h112v-550h-92l-13 62h-3q-7 -34 -23 -53t-50 -19zM27 725h88q-5 -51 30 -51q33 0 29 51h84q7 -64 -23 -98.5t-92 -34.5t-92.5 34.5t-23.5 98.5z" />
    <glyph glyph-name="Uring" unicode="&#x16e;" 
d="M144 -8q-57 0 -92.5 34t-35.5 86v638h113v-638q0 -16 15 -16q14 0 14 16v638h113v-638q0 -52 -35.5 -86t-91.5 -34zM53 871q0 39 26 65t65 26t65 -26t26 -65t-26 -65t-65 -26t-65 26t-26 65zM119 871q0 -13 7 -21t18 -8t18 8t7 21t-7 21t-18 8t-18 -8t-7 -21z" />
    <glyph glyph-name="uring" unicode="&#x16f;" horiz-adv-x="285" 
d="M88 -10q-74 0 -74 108v452h112v-412q0 -24 15 -24q16 0 16 27v409h112v-550h-92l-13 62h-3q-7 -34 -23 -53t-50 -19zM52 671q0 39 26 65t65 26t65 -26t26 -65t-26 -65t-65 -26t-65 26t-26 65zM118 671q0 -13 7 -21t18 -8t18 8t7 21t-7 21t-18 8t-18 -8t-7 -21z" />
    <glyph glyph-name="Uhungarumlaut" unicode="&#x170;" 
d="M144 -8q-57 0 -92.5 34t-35.5 86v638h113v-638q0 -16 15 -16q14 0 14 16v638h113v-638q0 -52 -35.5 -86t-91.5 -34zM40 790l20 135h123l-106 -135h-37zM165 790l20 135h123l-106 -135h-37z" />
    <glyph glyph-name="uhungarumlaut" unicode="&#x171;" horiz-adv-x="285" 
d="M88 -10q-74 0 -74 108v452h112v-412q0 -24 15 -24q16 0 16 27v409h112v-550h-92l-13 62h-3q-7 -34 -23 -53t-50 -19zM39 590l20 135h123l-106 -135h-37zM164 590l20 135h123l-106 -135h-37z" />
    <glyph glyph-name="Uogonek" unicode="&#x172;" 
d="M194 -180q-72 -4 -108 19t-36 63q0 57 64 93q-45 8 -71.5 40t-26.5 77v638h113v-638q0 -16 15 -16q14 0 14 16v638h113v-638q0 -40 -21 -69.5t-57 -42.5q-38 -42 -38 -68q0 -33 39 -33v-79z" />
    <glyph glyph-name="uogonek" unicode="&#x173;" horiz-adv-x="285" 
d="M88 -10q-74 0 -74 108v452h112v-412q0 -24 15 -24q16 0 16 27v409h112v-550q-39 -43 -39 -69q0 -33 39 -33v-79q-72 -4 -108 19t-36 63q0 63 77 99h-25l-13 62h-3q-7 -34 -23 -53t-50 -19z" />
    <glyph glyph-name="Wcircumflex" unicode="&#x174;" horiz-adv-x="436" 
d="M79 0l-74 750h105l32 -482l26 482h104l27 -483l32 483h100l-74 -750h-113l-26 477l-27 -477h-112zM120 790l57 135h82l57 -135h-60l-38 51l-38 -51h-60z" />
    <glyph glyph-name="wcircumflex" unicode="&#x175;" horiz-adv-x="446" 
d="M62 0l-58 550h114l21 -398h2l23 398h123l24 -398h2l21 398h108l-58 -550h-135l-25 337h-2l-26 -337h-134zM125 590l57 135h82l57 -135h-60l-38 51l-38 -51h-60z" />
    <glyph glyph-name="Ycircumflex" unicode="&#x176;" horiz-adv-x="269" 
d="M78 0v240l-80 510h112l26 -307l25 307h110l-81 -511v-239h-112zM36 790l57 135h82l57 -135h-60l-38 51l-38 -51h-60z" />
    <glyph glyph-name="ycircumflex" unicode="&#x177;" horiz-adv-x="280" 
d="M47 -187q-21 0 -38 4v111q9 -3 25 -3q35 0 52.5 14.5t24.5 53.5l6 37h-56l-58 520h121l18 -400h2l18 400h115l-60 -540q-12 -107 -52 -152t-118 -45zM42 590l57 135h82l57 -135h-60l-38 51l-38 -51h-60z" />
    <glyph glyph-name="Ydieresis" unicode="&#x178;" horiz-adv-x="269" 
d="M78 0v240l-80 510h112l26 -307l25 307h110l-81 -511v-239h-112zM16 847q0 25 16 40.5t41 15.5q26 0 42 -15.5t16 -40.5t-16 -41t-42 -16q-25 0 -41 16t-16 41zM137 847q0 25 16 40.5t41 15.5q26 0 42 -15.5t16 -40.5t-16 -41t-42 -16q-25 0 -41 16t-16 41z" />
    <glyph glyph-name="Zacute" unicode="&#x179;" horiz-adv-x="232" 
d="M7 0v93l104 552h-104v105h218v-96l-104 -549h104v-105h-218zM90 790l20 135h123l-106 -135h-37z" />
    <glyph glyph-name="zacute" unicode="&#x17a;" horiz-adv-x="220" 
d="M8 0v103l102 346h-98v101h196v-103l-102 -346h106v-101h-204zM84 590l20 135h123l-106 -135h-37z" />
    <glyph glyph-name="Zdotaccent" unicode="&#x17b;" horiz-adv-x="232" 
d="M7 0v93l104 552h-104v105h218v-96l-104 -549h104v-105h-218zM49 886q0 29 19 48t48 19t48 -19t19 -48t-18.5 -48t-48.5 -19q-28 0 -47.5 19.5t-19.5 47.5z" />
    <glyph glyph-name="zdotaccent" unicode="&#x17c;" horiz-adv-x="220" 
d="M8 0v103l102 346h-98v101h196v-103l-102 -346h106v-101h-204zM43 686q0 29 19 48t48 19t48 -19t19 -48t-18.5 -48t-48.5 -19q-28 0 -47.5 19.5t-19.5 47.5z" />
    <glyph glyph-name="Zcaron" unicode="&#x17d;" horiz-adv-x="232" 
d="M7 0v93l104 552h-104v105h218v-96l-104 -549h104v-105h-218zM18 925h60l38 -51l38 51h60l-57 -135h-82z" />
    <glyph glyph-name="zcaron" unicode="&#x17e;" horiz-adv-x="220" 
d="M8 0v103l102 346h-98v101h196v-103l-102 -346h106v-101h-204zM12 725h60l38 -51l38 51h60l-57 -135h-82z" />
    <glyph glyph-name="uni018F" unicode="&#x18f;" 
d="M143 -10q-56 0 -91.5 34t-35.5 86v258h143v272q0 17 -16 17q-15 0 -15 -17v-212h-112v212q0 52 35.5 86t91.5 34q57 0 92.5 -34t35.5 -86v-530q0 -52 -35.5 -86t-92.5 -34zM128 110q0 -17 15 -17q16 0 16 17v158h-31v-158z" />
    <glyph glyph-name="florin" unicode="&#x192;" horiz-adv-x="261" 
d="M7 0v104h52q15 0 15 16v212h-67v104h67v194q0 52 35.5 86t92.5 34h52v-104h-52q-15 0 -15 -16v-194h67v-104h-67v-212q0 -52 -35.5 -86t-92.5 -34h-52z" />
    <glyph glyph-name="uni019D" unicode="&#x19d;" horiz-adv-x="297" 
d="M-1 -186q-15 0 -33 3v107h19q32 0 32 37v789h89l81 -374v374h94v-750h-88l-82 379v-423q0 -78 -23 -110t-89 -32z" />
    <glyph glyph-name="Ohorn" unicode="&#x1a0;" horiz-adv-x="307" 
d="M144 -10q-57 0 -92.5 34t-35.5 86v530q0 52 34.5 86t87.5 34q14 0 32.5 -3.5t24.5 -3.5q18 0 24.5 11.5t6.5 38.5q0 31 -12 66h96q15 -41 15 -73q0 -80 -70 -102q16 -23 16 -54v-530q0 -52 -35.5 -86t-91.5 -34zM128 110q0 -17 16 -17q15 0 15 17v530q0 17 -15 17
q-16 0 -16 -17v-530z" />
    <glyph glyph-name="ohorn" unicode="&#x1a1;" horiz-adv-x="315" 
d="M142 -10q-58 0 -93 35.5t-35 94.5v310q0 60 32.5 95t88.5 35q15 0 31 -3t23 -3q15 0 25.5 10.5t10.5 30.5q0 32 -13 74h92q12 -36 12 -73q0 -76 -61 -102q14 -28 14 -64v-310q0 -59 -35 -94.5t-92 -35.5zM126 110q0 -17 16 -17q15 0 15 17v330q0 17 -15 17q-16 0 -16 -17
v-330z" />
    <glyph glyph-name="Uhorn" unicode="&#x1af;" horiz-adv-x="337" 
d="M144 -8q-57 0 -92.5 34t-35.5 86v638h113v-638q0 -16 15 -16q14 0 14 16v638h37q30 0 44 12t14 41q0 31 -12 66h99q15 -41 15 -73q0 -90 -84 -110v-574q0 -52 -35.5 -86t-91.5 -34z" />
    <glyph glyph-name="uhorn" unicode="&#x1b0;" horiz-adv-x="325" 
d="M88 -10q-74 0 -74 108v452h112v-412q0 -24 15 -24q16 0 16 27v409h10q30 0 44 12t14 41q0 31 -12 66h99q15 -41 15 -73q0 -74 -58 -101v-495h-92l-13 62h-3q-7 -34 -23 -53t-50 -19z" />
    <glyph glyph-name="Gcaron" unicode="&#x1e6;" horiz-adv-x="296" 
d="M144 -10q-57 0 -92.5 34t-35.5 86v530q0 52 35.5 86t92.5 34t92.5 -34t35.5 -86v-157h-113v157q0 16 -15 16t-15 -16v-530q0 -16 15 -16t15 16v162h-16v105h145v-105h-16v-162q0 -52 -35.5 -86t-92.5 -34zM47 925h60l38 -51l38 51h60l-57 -135h-82z" />
    <glyph glyph-name="gcaron" unicode="&#x1e7;" horiz-adv-x="285" 
d="M141 -190q-57 0 -92 35.5t-35 94.5v60h112v-76q0 -18 15 -18q16 0 16 18v179h-3q-4 -33 -16.5 -50t-44.5 -17q-79 0 -79 114v287q0 54 18.5 88.5t57.5 34.5q32 0 46 -16t28 -52h3v58h102v-610q0 -59 -35 -94.5t-93 -35.5zM45 725h60l38 -51l38 51h60l-57 -135h-82z
M126 185q0 -24 16 -24q15 0 15 27v214q0 27 -15 27q-16 0 -16 -24v-220z" />
    <glyph glyph-name="uni0218" unicode="&#x218;" horiz-adv-x="271" 
d="M135 -10q-60 0 -90.5 35t-30.5 97v108h111v-125q0 -11 10 -11q11 0 11 11v123q0 38 -7 55.5t-43 59.5q-47 56 -64 95.5t-17 84.5v108q0 59 33 94t89 35q54 0 86 -34.5t32 -94.5v-111h-112v128q0 8 -8 8t-8 -8v-110q0 -34 10 -53t44 -59q36 -42 53 -75t20 -53.5t3 -57.5
v-117q0 -63 -31 -98t-91 -35zM90 -86q0 20 13 32.5t33 12.5t33 -12.5t13 -32.5q0 -11 -7 -29l-42 -106l-34 14l29 76q-38 5 -38 45z" />
    <glyph glyph-name="uni0219" unicode="&#x219;" horiz-adv-x="275" 
d="M137 -10q-57 0 -92 35.5t-35 94.5v55h112v-65q0 -17 15 -17q16 0 16 17v42q0 17 -1 25.5t-8 19t-21 19.5l-56 37q-31 20 -43.5 55.5t-12.5 98.5q0 75 34 114t93 39q57 0 91.5 -35.5t34.5 -94.5v-55h-112v65q0 17 -14 17q-15 0 -15 -17v-32q0 -19 1 -28t8.5 -21.5
t22.5 -22.5l56 -37q32 -21 43 -53.5t11 -102.5q0 -75 -34.5 -114t-93.5 -39zM92 -86q0 20 13 32.5t33 12.5t33 -12.5t13 -32.5q0 -11 -7 -29l-42 -106l-34 14l29 76q-38 5 -38 45z" />
    <glyph glyph-name="uni021A" unicode="&#x21a;" horiz-adv-x="246" 
d="M67 0v646h-60v104h232v-104h-60v-646h-112zM77 -86q0 20 13 32.5t33 12.5t33 -12.5t13 -32.5q0 -11 -7 -29l-42 -106l-34 14l29 76q-38 5 -38 45z" />
    <glyph glyph-name="uni021B" unicode="&#x21b;" horiz-adv-x="228" 
d="M163 -4q-122 0 -122 145v307h-35v102h35v116l112 20v-136h63v-102h-63v-300q0 -44 39 -44q11 0 24 4v-105q-24 -7 -53 -7zM99 -86q0 20 13 32.5t33 12.5t33 -12.5t13 -32.5q0 -11 -7 -29l-42 -106l-34 14l29 76q-38 5 -38 45z" />
    <glyph glyph-name="uni0232" unicode="&#x232;" horiz-adv-x="269" 
d="M78 0v240l-80 510h112l26 -307l25 307h110l-81 -511v-239h-112zM35 808v96h198v-96h-198z" />
    <glyph glyph-name="uni0233" unicode="&#x233;" horiz-adv-x="280" 
d="M47 -187q-21 0 -38 4v111q9 -3 25 -3q35 0 52.5 14.5t24.5 53.5l6 37h-56l-58 520h121l18 -400h2l18 400h115l-60 -540q-12 -107 -52 -152t-118 -45zM41 608v96h198v-96h-198z" />
    <glyph glyph-name="uni0237" unicode="&#x237;" horiz-adv-x="145" 
d="M-1 -186q-15 0 -33 3v107h19q32 0 32 37v589h112v-594q0 -75 -31 -108.5t-99 -33.5z" />
    <glyph glyph-name="uni0259" unicode="&#x259;" horiz-adv-x="283" 
d="M141 560q58 0 93 -35.5t35 -94.5v-310q0 -59 -35 -94.5t-93 -35.5q-57 0 -92 35.5t-35 94.5v176h143v146q0 17 -16 17q-15 0 -15 -17v-115h-112v103q0 59 35 94.5t92 35.5zM126 108q0 -17 15 -17q16 0 16 17v118h-31v-118z" />
    <glyph glyph-name="uni0272" unicode="&#x272;" horiz-adv-x="286" 
d="M-1 -186q-15 0 -33 3v107h19q32 0 32 37v589h102v-62h3q10 35 26 53.5t50 18.5q40 0 57 -26t17 -77v-457h-112v412q0 24 -15 24q-16 0 -16 -27v-453q0 -75 -31 -108.5t-99 -33.5z" />
    <glyph glyph-name="gravecomb" unicode="&#x300;" horiz-adv-x="0" 
d="M193 590h-37l-106 135h123z" />
    <glyph glyph-name="acutecomb" unicode="&#x301;" horiz-adv-x="0" 
d="M50 590l20 135h123l-106 -135h-37z" />
    <glyph glyph-name="uni0302" unicode="&#x302;" horiz-adv-x="0" 
d="M189 725l57 -135h-60l-38 51l-38 -51h-60l57 135h82z" />
    <glyph glyph-name="tildecomb" unicode="&#x303;" horiz-adv-x="0" 
d="M233 590q-23 0 -51.5 22.5t-35.5 22.5q-20 0 -20 -37h-75q-5 62 17.5 95.5t68.5 33.5q23 0 51.5 -22.5t35.5 -22.5q20 0 20 37h75q5 -62 -17.5 -95.5t-68.5 -33.5z" />
    <glyph glyph-name="uni0304" unicode="&#x304;" horiz-adv-x="0" 
d="M50 704h198v-96h-198v96z" />
    <glyph glyph-name="uni0306" unicode="&#x306;" horiz-adv-x="0" 
d="M167 592q-62 0 -92.5 34.5t-23.5 98.5h88q-5 -51 30 -51q33 0 29 51h84q7 -64 -23 -98.5t-92 -34.5z" />
    <glyph glyph-name="uni0307" unicode="&#x307;" horiz-adv-x="0" 
d="M117 619q-29 0 -48 19.5t-19 47.5q0 29 19 48t48 19t48 -19t19 -48t-18.5 -48t-48.5 -19z" />
    <glyph glyph-name="uni0308" unicode="&#x308;" horiz-adv-x="0" 
d="M107 590q-25 0 -41 16t-16 41t16 40.5t41 15.5q26 0 42 -15.5t16 -40.5t-16 -41t-42 -16zM171 647q0 25 16 40.5t41 15.5q26 0 42 -15.5t16 -40.5t-16 -41t-42 -16q-25 0 -41 16t-16 41z" />
    <glyph glyph-name="hookabovecomb" unicode="&#x309;" horiz-adv-x="0" 
d="M50 627q36 8 36 28q0 26 -36 26v84h2q64 0 93.5 -24.5t29.5 -63.5q0 -50 -56 -72v-19h-69v41z" />
    <glyph glyph-name="uni030A" unicode="&#x30a;" horiz-adv-x="0" 
d="M141 580q-39 0 -65 26t-26 65t26 65t65 26t65 -26t26 -65t-26 -65t-65 -26zM116 671q0 -13 7 -21t18 -8t18 8t7 21t-7 21t-18 8t-18 -8t-7 -21z" />
    <glyph glyph-name="uni030B" unicode="&#x30b;" horiz-adv-x="0" 
d="M175 590l20 135h123l-106 -135h-37zM50 590l20 135h123l-106 -135h-37z" />
    <glyph glyph-name="uni030C" unicode="&#x30c;" horiz-adv-x="0" 
d="M107 590l-57 135h60l38 -51l38 51h60l-57 -135h-82z" />
    <glyph glyph-name="uni0312" unicode="&#x312;" horiz-adv-x="0" 
d="M50 651q0 11 7 29l42 106l34 -14l-29 -76q38 -5 38 -45q0 -20 -13 -32.5t-33 -12.5t-33 12.5t-13 32.5z" />
    <glyph glyph-name="uni031B" unicode="&#x31b;" horiz-adv-x="0" 
d="M71 481l-21 69h2q30 0 44 12t14 41q0 31 -12 66h99q15 -41 15 -73q0 -56 -34.5 -85.5t-97.5 -29.5h-9z" />
    <glyph glyph-name="dotbelowcomb" unicode="&#x323;" horiz-adv-x="0" 
d="M112 -153q-27 0 -44.5 17t-17.5 45q0 27 17.5 44t44.5 17q28 0 45 -17t17 -44q0 -28 -17 -45t-45 -17z" />
    <glyph glyph-name="uni0326" unicode="&#x326;" horiz-adv-x="0" 
d="M142 -86q0 -11 -7 -29l-42 -106l-34 14l29 76q-38 5 -38 45q0 20 13 32.5t33 12.5t33 -12.5t13 -32.5z" />
    <glyph glyph-name="uni0327" unicode="&#x327;" horiz-adv-x="0" 
d="M193 -50l-20 -135h-123l106 135h37z" />
    <glyph glyph-name="uni0328" unicode="&#x328;" horiz-adv-x="0" 
d="M194 -180q-72 -4 -108 19t-36 63q0 67 88 104l56 -5q-39 -43 -39 -69q0 -33 39 -33v-79z" />
    <glyph glyph-name="uni0394" unicode="&#x394;" horiz-adv-x="279" 
d="M67 750h145l67 -750h-279zM114 92h46l-21 497z" />
    <glyph glyph-name="uni03A9" unicode="&#x3a9;" horiz-adv-x="280" 
d="M140 760q57 0 92.5 -34t35.5 -86v-480q0 -31 -15 -58l25 2v-104h-128v114l1 2q1 1 2.5 5t1.5 9v510q0 16 -15 16t-15 -16v-510q0 -5 1.5 -9t2.5 -5l1 -2v-114h-128v104l25 -2q-15 27 -15 58v480q0 52 35.5 86t92.5 34z" />
    <glyph glyph-name="uni03BC" unicode="&#x3bc;" horiz-adv-x="285" 
d="M16 -180v730h112v-412q0 -24 15 -24q16 0 16 27v409h112v-550h-92l-13 62h-3q-10 -46 -35 -57v-185h-112z" />
    <glyph glyph-name="pi" unicode="&#x3c0;" horiz-adv-x="401" 
d="M336 -4q-122 0 -122 145v307h-35l-18 -448h-112l18 448h-59v102h381v-102h-63v-300q0 -44 39 -44q11 0 24 4v-105q-25 -7 -53 -7z" />
    <glyph glyph-name="uni1E20" unicode="&#x1e20;" horiz-adv-x="296" 
d="M144 -10q-57 0 -92.5 34t-35.5 86v530q0 52 35.5 86t92.5 34t92.5 -34t35.5 -86v-157h-113v157q0 16 -15 16t-15 -16v-530q0 -16 15 -16t15 16v162h-16v105h145v-105h-16v-162q0 -52 -35.5 -86t-92.5 -34zM46 808v96h198v-96h-198z" />
    <glyph glyph-name="uni1E21" unicode="&#x1e21;" horiz-adv-x="285" 
d="M141 -190q-57 0 -92 35.5t-35 94.5v60h112v-76q0 -18 15 -18q16 0 16 18v179h-3q-4 -33 -16.5 -50t-44.5 -17q-79 0 -79 114v287q0 54 18.5 88.5t57.5 34.5q32 0 46 -16t28 -52h3v58h102v-610q0 -59 -35 -94.5t-93 -35.5zM44 608v96h198v-96h-198zM126 185q0 -24 16 -24
q15 0 15 27v214q0 27 -15 27q-16 0 -16 -24v-220z" />
    <glyph glyph-name="Wgrave" unicode="&#x1e80;" horiz-adv-x="436" 
d="M79 0l-74 750h105l32 -482l26 482h104l27 -483l32 483h100l-74 -750h-113l-26 477l-27 -477h-112zM99 925h123l20 -135h-37z" />
    <glyph glyph-name="wgrave" unicode="&#x1e81;" horiz-adv-x="446" 
d="M62 0l-58 550h114l21 -398h2l23 398h123l24 -398h2l21 398h108l-58 -550h-135l-25 337h-2l-26 -337h-134zM104 725h123l20 -135h-37z" />
    <glyph glyph-name="Wacute" unicode="&#x1e82;" horiz-adv-x="436" 
d="M79 0l-74 750h105l32 -482l26 482h104l27 -483l32 483h100l-74 -750h-113l-26 477l-27 -477h-112zM192 790l20 135h123l-106 -135h-37z" />
    <glyph glyph-name="wacute" unicode="&#x1e83;" horiz-adv-x="446" 
d="M62 0l-58 550h114l21 -398h2l23 398h123l24 -398h2l21 398h108l-58 -550h-135l-25 337h-2l-26 -337h-134zM197 590l20 135h123l-106 -135h-37z" />
    <glyph glyph-name="Wdieresis" unicode="&#x1e84;" horiz-adv-x="436" 
d="M79 0l-74 750h105l32 -482l26 482h104l27 -483l32 483h100l-74 -750h-113l-26 477l-27 -477h-112zM100 847q0 25 16 40.5t41 15.5q26 0 42 -15.5t16 -40.5t-16 -41t-42 -16q-25 0 -41 16t-16 41zM221 847q0 25 16 40.5t41 15.5q26 0 42 -15.5t16 -40.5t-16 -41t-42 -16
q-25 0 -41 16t-16 41z" />
    <glyph glyph-name="wdieresis" unicode="&#x1e85;" horiz-adv-x="446" 
d="M62 0l-58 550h114l21 -398h2l23 398h123l24 -398h2l21 398h108l-58 -550h-135l-25 337h-2l-26 -337h-134zM105 647q0 25 16 40.5t41 15.5q26 0 42 -15.5t16 -40.5t-16 -41t-42 -16q-25 0 -41 16t-16 41zM226 647q0 25 16 40.5t41 15.5q26 0 42 -15.5t16 -40.5t-16 -41
t-42 -16q-25 0 -41 16t-16 41z" />
    <glyph glyph-name="uni1E9E" unicode="&#x1e9e;" horiz-adv-x="295" 
d="M140 96q27 0 27 25v194q0 10 -6 18t-17 8h-4v108q26 0 26 29v152q0 22 -18 22q-9 0 -20 -8v-644h-112v717q67 43 131 43q59 0 96 -38t37 -99v-144q0 -50 -34 -84q35 -35 35 -84v-188q0 -58 -38 -95.5t-103 -37.5v106z" />
    <glyph glyph-name="uni1EA0" unicode="&#x1ea0;" horiz-adv-x="279" 
d="M0 0l67 750h145l67 -750h-115l-5 116h-43l-6 -116h-110zM78 -91q0 27 17.5 44t44.5 17q28 0 45 -17t17 -44q0 -28 -17 -45t-45 -17q-27 0 -44.5 17t-17.5 45zM120 208h35l-16 381z" />
    <glyph glyph-name="uni1EA1" unicode="&#x1ea1;" horiz-adv-x="281" 
d="M94 -10q-83 0 -83 139v16q0 73 20 107.5t75 53.5l48 17v117q0 17 -15 17q-14 0 -14 -17v-87h-112v77q0 59 34.5 94.5t91.5 35.5t92 -35.5t35 -94.5v-430h-91l-12 50h-2q-10 -32 -25.5 -46t-41.5 -14zM79 -91q0 27 17.5 44t44.5 17q28 0 45 -17t17 -44q0 -28 -17 -45
t-45 -17q-27 0 -44.5 17t-17.5 45zM123 120q0 -21 16 -21q15 0 15 21v123l-9 -3q-22 -7 -22 -41v-79z" />
    <glyph glyph-name="uni1EA2" unicode="&#x1ea2;" horiz-adv-x="279" 
d="M0 0l67 750h145l67 -750h-115l-5 116h-43l-6 -116h-110zM110 786v41q36 8 36 28q0 26 -36 26v84h2q64 0 93.5 -24.5t29.5 -63.5q0 -50 -56 -72v-19h-69zM120 208h35l-16 381z" />
    <glyph glyph-name="uni1EA3" unicode="&#x1ea3;" horiz-adv-x="281" 
d="M94 -10q-83 0 -83 139v16q0 73 20 107.5t75 53.5l48 17v117q0 17 -15 17q-14 0 -14 -17v-87h-112v77q0 59 34.5 94.5t91.5 35.5t92 -35.5t35 -94.5v-430h-91l-12 50h-2q-10 -32 -25.5 -46t-41.5 -14zM111 586v41q36 8 36 28q0 26 -36 26v84h2q64 0 93.5 -24.5t29.5 -63.5
q0 -50 -56 -72v-19h-69zM123 120q0 -21 16 -21q15 0 15 21v123l-9 -3q-22 -7 -22 -41v-79z" />
    <glyph glyph-name="uni1EA4" unicode="&#x1ea4;" horiz-adv-x="279" 
d="M0 0l67 750h145l67 -750h-115l-5 116h-43l-6 -116h-110zM42 790l57 135h82l57 -135h-60l-38 51l-38 -51h-60zM120 208h35l-16 381zM202 920l17 115h104l-90 -115h-31z" />
    <glyph glyph-name="uni1EA5" unicode="&#x1ea5;" horiz-adv-x="281" 
d="M94 -10q-83 0 -83 139v16q0 73 20 107.5t75 53.5l48 17v117q0 17 -15 17q-14 0 -14 -17v-87h-112v77q0 59 34.5 94.5t91.5 35.5t92 -35.5t35 -94.5v-430h-91l-12 50h-2q-10 -32 -25.5 -46t-41.5 -14zM43 590l57 135h82l57 -135h-60l-38 51l-38 -51h-60zM123 120
q0 -21 16 -21q15 0 15 21v123l-9 -3q-22 -7 -22 -41v-79zM203 720l17 115h104l-90 -115h-31z" />
    <glyph glyph-name="uni1EA6" unicode="&#x1ea6;" horiz-adv-x="279" 
d="M0 0l67 750h145l67 -750h-115l-5 116h-43l-6 -116h-110zM42 790l57 135h82l57 -135h-60l-38 51l-38 -51h-60zM120 208h35l-16 381zM151 1035h104l17 -115h-31z" />
    <glyph glyph-name="uni1EA7" unicode="&#x1ea7;" horiz-adv-x="281" 
d="M94 -10q-83 0 -83 139v16q0 73 20 107.5t75 53.5l48 17v117q0 17 -15 17q-14 0 -14 -17v-87h-112v77q0 59 34.5 94.5t91.5 35.5t92 -35.5t35 -94.5v-430h-91l-12 50h-2q-10 -32 -25.5 -46t-41.5 -14zM43 590l57 135h82l57 -135h-60l-38 51l-38 -51h-60zM123 120
q0 -21 16 -21q15 0 15 21v123l-9 -3q-22 -7 -22 -41v-79zM152 835h104l17 -115h-31z" />
    <glyph glyph-name="uni1EA8" unicode="&#x1ea8;" horiz-adv-x="279" 
d="M0 0l67 750h145l67 -750h-115l-5 116h-43l-6 -116h-110zM42 790l57 135h82l57 -135h-60l-38 51l-38 -51h-60zM120 208h35l-16 381zM206 903v40q35 7 35 27q0 25 -35 25v80h2q61 0 89.5 -23.5t28.5 -60.5q0 -49 -54 -69v-19h-66z" />
    <glyph glyph-name="uni1EA9" unicode="&#x1ea9;" horiz-adv-x="281" 
d="M94 -10q-83 0 -83 139v16q0 73 20 107.5t75 53.5l48 17v117q0 17 -15 17q-14 0 -14 -17v-87h-112v77q0 59 34.5 94.5t91.5 35.5t92 -35.5t35 -94.5v-430h-91l-12 50h-2q-10 -32 -25.5 -46t-41.5 -14zM43 590l57 135h82l57 -135h-60l-38 51l-38 -51h-60zM123 120
q0 -21 16 -21q15 0 15 21v123l-9 -3q-22 -7 -22 -41v-79zM207 703v40q35 7 35 27q0 25 -35 25v80h2q61 0 89.5 -23.5t28.5 -60.5q0 -49 -54 -69v-19h-66z" />
    <glyph glyph-name="uni1EAA" unicode="&#x1eaa;" horiz-adv-x="279" 
d="M0 0l67 750h145l67 -750h-115l-5 116h-43l-6 -116h-110zM14 969q-4 56 16.5 86.5t62.5 30.5q21 0 46.5 -20.5t32.5 -20.5q18 0 18 34h68q4 -56 -16.5 -86.5t-61.5 -30.5q-21 0 -47 20.5t-32 20.5q-18 0 -18 -34h-69zM42 790l57 135h82l57 -135h-60l-38 51l-38 -51h-60z
M120 208h35l-16 381z" />
    <glyph glyph-name="uni1EAB" unicode="&#x1eab;" horiz-adv-x="281" 
d="M94 -10q-83 0 -83 139v16q0 73 20 107.5t75 53.5l48 17v117q0 17 -15 17q-14 0 -14 -17v-87h-112v77q0 59 34.5 94.5t91.5 35.5t92 -35.5t35 -94.5v-430h-91l-12 50h-2q-10 -32 -25.5 -46t-41.5 -14zM15 769q-4 56 16.5 86.5t62.5 30.5q21 0 46.5 -20.5t32.5 -20.5
q18 0 18 34h68q4 -56 -16.5 -86.5t-61.5 -30.5q-21 0 -47 20.5t-32 20.5q-18 0 -18 -34h-69zM43 590l57 135h82l57 -135h-60l-38 51l-38 -51h-60zM123 120q0 -21 16 -21q15 0 15 21v123l-9 -3q-22 -7 -22 -41v-79z" />
    <glyph glyph-name="uni1EAC" unicode="&#x1eac;" horiz-adv-x="279" 
d="M0 0l67 750h145l67 -750h-115l-5 116h-43l-6 -116h-110zM42 790l57 135h82l57 -135h-60l-38 51l-38 -51h-60zM78 -91q0 27 17.5 44t44.5 17q28 0 45 -17t17 -44q0 -28 -17 -45t-45 -17q-27 0 -44.5 17t-17.5 45zM120 208h35l-16 381z" />
    <glyph glyph-name="uni1EAD" unicode="&#x1ead;" horiz-adv-x="281" 
d="M94 -10q-83 0 -83 139v16q0 73 20 107.5t75 53.5l48 17v117q0 17 -15 17q-14 0 -14 -17v-87h-112v77q0 59 34.5 94.5t91.5 35.5t92 -35.5t35 -94.5v-430h-91l-12 50h-2q-10 -32 -25.5 -46t-41.5 -14zM43 590l57 135h82l57 -135h-60l-38 51l-38 -51h-60zM79 -91
q0 27 17.5 44t44.5 17q28 0 45 -17t17 -44q0 -28 -17 -45t-45 -17q-27 0 -44.5 17t-17.5 45zM123 120q0 -21 16 -21q15 0 15 21v123l-9 -3q-22 -7 -22 -41v-79z" />
    <glyph glyph-name="uni1EAE" unicode="&#x1eae;" horiz-adv-x="279" 
d="M0 0l67 750h145l67 -750h-115l-5 116h-43l-6 -116h-110zM24 925h88q-4 -51 30 -51t29 51h84q7 -64 -23 -98.5t-92 -34.5t-92.5 34.5t-23.5 98.5zM120 208h35l-16 381zM125 949l17 115h104l-90 -115h-31z" />
    <glyph glyph-name="uni1EAF" unicode="&#x1eaf;" horiz-adv-x="281" 
d="M94 -10q-83 0 -83 139v16q0 73 20 107.5t75 53.5l48 17v117q0 17 -15 17q-14 0 -14 -17v-87h-112v77q0 59 34.5 94.5t91.5 35.5t92 -35.5t35 -94.5v-430h-91l-12 50h-2q-10 -32 -25.5 -46t-41.5 -14zM25 725h88q-5 -51 30 -51q33 0 29 51h84q7 -64 -23 -98.5t-92 -34.5
t-92.5 34.5t-23.5 98.5zM123 120q0 -21 16 -21q15 0 15 21v123l-9 -3q-22 -7 -22 -41v-79zM126 749l17 115h104l-90 -115h-31z" />
    <glyph glyph-name="uni1EB0" unicode="&#x1eb0;" horiz-adv-x="279" 
d="M0 0l67 750h145l67 -750h-115l-5 116h-43l-6 -116h-110zM24 925h88q-4 -51 30 -51t29 51h84q7 -64 -23 -98.5t-92 -34.5t-92.5 34.5t-23.5 98.5zM41 1064h104l17 -115h-31zM120 208h35l-16 381z" />
    <glyph glyph-name="uni1EB1" unicode="&#x1eb1;" horiz-adv-x="281" 
d="M94 -10q-83 0 -83 139v16q0 73 20 107.5t75 53.5l48 17v117q0 17 -15 17q-14 0 -14 -17v-87h-112v77q0 59 34.5 94.5t91.5 35.5t92 -35.5t35 -94.5v-430h-91l-12 50h-2q-10 -32 -25.5 -46t-41.5 -14zM25 725h88q-5 -51 30 -51q33 0 29 51h84q7 -64 -23 -98.5t-92 -34.5
t-92.5 34.5t-23.5 98.5zM42 864h104l17 -115h-31zM123 120q0 -21 16 -21q15 0 15 21v123l-9 -3q-22 -7 -22 -41v-79z" />
    <glyph glyph-name="uni1EB2" unicode="&#x1eb2;" horiz-adv-x="279" 
d="M0 0l67 750h145l67 -750h-115l-5 116h-43l-6 -116h-110zM24 925h88q-4 -51 30 -51t29 51h84q7 -64 -23 -98.5t-92 -34.5t-92.5 34.5t-23.5 98.5zM111 948v38q33 8 33 26q0 24 -33 24v78h2q59 0 86.5 -22.5t27.5 -59.5q0 -46 -52 -66v-18h-64zM120 208h35l-16 381z" />
    <glyph glyph-name="uni1EB3" unicode="&#x1eb3;" horiz-adv-x="281" 
d="M94 -10q-83 0 -83 139v16q0 73 20 107.5t75 53.5l48 17v117q0 17 -15 17q-14 0 -14 -17v-87h-112v77q0 59 34.5 94.5t91.5 35.5t92 -35.5t35 -94.5v-430h-91l-12 50h-2q-10 -32 -25.5 -46t-41.5 -14zM25 725h88q-5 -51 30 -51q33 0 29 51h84q7 -64 -23 -98.5t-92 -34.5
t-92.5 34.5t-23.5 98.5zM112 748v38q33 8 33 26q0 24 -33 24v78h2q59 0 86.5 -22.5t27.5 -59.5q0 -46 -52 -66v-18h-64zM123 120q0 -21 16 -21q15 0 15 21v123l-9 -3q-22 -7 -22 -41v-79z" />
    <glyph glyph-name="uni1EB4" unicode="&#x1eb4;" horiz-adv-x="279" 
d="M0 0l67 750h145l67 -750h-115l-5 116h-43l-6 -116h-110zM14 969q-4 56 16.5 86.5t62.5 30.5q21 0 46.5 -20.5t32.5 -20.5q18 0 18 34h68q4 -56 -16.5 -86.5t-61.5 -30.5q-21 0 -47 20.5t-32 20.5q-18 0 -18 -34h-69zM24 925h88q-4 -51 30 -51t29 51h84q7 -64 -23 -98.5
t-92 -34.5t-92.5 34.5t-23.5 98.5zM120 208h35l-16 381z" />
    <glyph glyph-name="uni1EB5" unicode="&#x1eb5;" horiz-adv-x="281" 
d="M94 -10q-83 0 -83 139v16q0 73 20 107.5t75 53.5l48 17v117q0 17 -15 17q-14 0 -14 -17v-87h-112v77q0 59 34.5 94.5t91.5 35.5t92 -35.5t35 -94.5v-430h-91l-12 50h-2q-10 -32 -25.5 -46t-41.5 -14zM15 769q-4 56 16.5 86.5t62.5 30.5q21 0 46.5 -20.5t32.5 -20.5
q18 0 18 34h68q4 -56 -16.5 -86.5t-61.5 -30.5q-21 0 -47 20.5t-32 20.5q-18 0 -18 -34h-69zM25 725h88q-5 -51 30 -51q33 0 29 51h84q7 -64 -23 -98.5t-92 -34.5t-92.5 34.5t-23.5 98.5zM123 120q0 -21 16 -21q15 0 15 21v123l-9 -3q-22 -7 -22 -41v-79z" />
    <glyph glyph-name="uni1EB6" unicode="&#x1eb6;" horiz-adv-x="279" 
d="M0 0l67 750h145l67 -750h-115l-5 116h-43l-6 -116h-110zM24 925h88q-4 -51 30 -51t29 51h84q7 -64 -23 -98.5t-92 -34.5t-92.5 34.5t-23.5 98.5zM78 -91q0 27 17.5 44t44.5 17q28 0 45 -17t17 -44q0 -28 -17 -45t-45 -17q-27 0 -44.5 17t-17.5 45zM120 208h35l-16 381z
" />
    <glyph glyph-name="uni1EB7" unicode="&#x1eb7;" horiz-adv-x="281" 
d="M94 -10q-83 0 -83 139v16q0 73 20 107.5t75 53.5l48 17v117q0 17 -15 17q-14 0 -14 -17v-87h-112v77q0 59 34.5 94.5t91.5 35.5t92 -35.5t35 -94.5v-430h-91l-12 50h-2q-10 -32 -25.5 -46t-41.5 -14zM25 725h88q-5 -51 30 -51q33 0 29 51h84q7 -64 -23 -98.5t-92 -34.5
t-92.5 34.5t-23.5 98.5zM79 -91q0 27 17.5 44t44.5 17q28 0 45 -17t17 -44q0 -28 -17 -45t-45 -17q-27 0 -44.5 17t-17.5 45zM123 120q0 -21 16 -21q15 0 15 21v123l-9 -3q-22 -7 -22 -41v-79z" />
    <glyph glyph-name="uni1EB8" unicode="&#x1eb8;" horiz-adv-x="232" 
d="M16 0v750h202v-104h-90v-204h65v-104h-65v-234h90v-104h-202zM49 -91q0 27 17.5 44t44.5 17q28 0 45 -17t17 -44q0 -28 -17 -45t-45 -17q-27 0 -44.5 17t-17.5 45z" />
    <glyph glyph-name="uni1EB9" unicode="&#x1eb9;" horiz-adv-x="283" 
d="M142 -10q-58 0 -93 35.5t-35 94.5v310q0 59 35 94.5t93 35.5q57 0 92 -35.5t35 -94.5v-176h-143v-146q0 -17 16 -17q15 0 15 17v115h112v-103q0 -59 -35 -94.5t-92 -35.5zM80 -91q0 27 17.5 44t44.5 17q28 0 45 -17t17 -44q0 -28 -17 -45t-45 -17q-27 0 -44.5 17
t-17.5 45zM126 324h31v118q0 17 -15 17q-16 0 -16 -17v-118z" />
    <glyph glyph-name="uni1EBA" unicode="&#x1eba;" horiz-adv-x="232" 
d="M16 0v750h202v-104h-90v-204h65v-104h-65v-234h90v-104h-202zM89 786v41q36 8 36 28q0 26 -36 26v84h2q64 0 93.5 -24.5t29.5 -63.5q0 -50 -56 -72v-19h-69z" />
    <glyph glyph-name="uni1EBB" unicode="&#x1ebb;" horiz-adv-x="283" 
d="M142 -10q-58 0 -93 35.5t-35 94.5v310q0 59 35 94.5t93 35.5q57 0 92 -35.5t35 -94.5v-176h-143v-146q0 -17 16 -17q15 0 15 17v115h112v-103q0 -59 -35 -94.5t-92 -35.5zM112 586v41q36 8 36 28q0 26 -36 26v84h2q64 0 93.5 -24.5t29.5 -63.5q0 -50 -56 -72v-19h-69z
M126 324h31v118q0 17 -15 17q-16 0 -16 -17v-118z" />
    <glyph glyph-name="uni1EBC" unicode="&#x1ebc;" horiz-adv-x="232" 
d="M16 0v750h202v-104h-90v-204h65v-104h-65v-234h90v-104h-202zM-15 798q-5 62 17.5 95.5t68.5 33.5q23 0 51.5 -22.5t35.5 -22.5q20 0 20 37h75q5 -62 -17.5 -95.5t-68.5 -33.5q-23 0 -51.5 22.5t-35.5 22.5q-20 0 -20 -37h-75z" />
    <glyph glyph-name="uni1EBD" unicode="&#x1ebd;" horiz-adv-x="283" 
d="M142 -10q-58 0 -93 35.5t-35 94.5v310q0 59 35 94.5t93 35.5q57 0 92 -35.5t35 -94.5v-176h-143v-146q0 -17 16 -17q15 0 15 17v115h112v-103q0 -59 -35 -94.5t-92 -35.5zM8 598q-5 62 17.5 95.5t68.5 33.5q23 0 51.5 -22.5t35.5 -22.5q20 0 20 37h75q5 -62 -17.5 -95.5
t-68.5 -33.5q-23 0 -51.5 22.5t-35.5 22.5q-20 0 -20 -37h-75zM126 324h31v118q0 17 -15 17q-16 0 -16 -17v-118z" />
    <glyph glyph-name="uni1EBE" unicode="&#x1ebe;" horiz-adv-x="232" 
d="M16 0v750h202v-104h-90v-204h65v-104h-65v-234h90v-104h-202zM21 790l57 135h82l57 -135h-60l-38 51l-38 -51h-60zM181 920l17 115h104l-90 -115h-31z" />
    <glyph glyph-name="uni1EBF" unicode="&#x1ebf;" horiz-adv-x="283" 
d="M142 -10q-58 0 -93 35.5t-35 94.5v310q0 59 35 94.5t93 35.5q57 0 92 -35.5t35 -94.5v-176h-143v-146q0 -17 16 -17q15 0 15 17v115h112v-103q0 -59 -35 -94.5t-92 -35.5zM44 590l57 135h82l57 -135h-60l-38 51l-38 -51h-60zM126 324h31v118q0 17 -15 17q-16 0 -16 -17
v-118zM204 720l17 115h104l-90 -115h-31z" />
    <glyph glyph-name="uni1EC0" unicode="&#x1ec0;" horiz-adv-x="232" 
d="M16 0v750h202v-104h-90v-204h65v-104h-65v-234h90v-104h-202zM21 790l57 135h82l57 -135h-60l-38 51l-38 -51h-60zM130 1035h104l17 -115h-31z" />
    <glyph glyph-name="uni1EC1" unicode="&#x1ec1;" horiz-adv-x="283" 
d="M142 -10q-58 0 -93 35.5t-35 94.5v310q0 59 35 94.5t93 35.5q57 0 92 -35.5t35 -94.5v-176h-143v-146q0 -17 16 -17q15 0 15 17v115h112v-103q0 -59 -35 -94.5t-92 -35.5zM44 590l57 135h82l57 -135h-60l-38 51l-38 -51h-60zM126 324h31v118q0 17 -15 17q-16 0 -16 -17
v-118zM153 835h104l17 -115h-31z" />
    <glyph glyph-name="uni1EC2" unicode="&#x1ec2;" horiz-adv-x="232" 
d="M16 0v750h202v-104h-90v-204h65v-104h-65v-234h90v-104h-202zM21 790l57 135h82l57 -135h-60l-38 51l-38 -51h-60zM185 903v40q35 7 35 27q0 25 -35 25v80h2q61 0 89.5 -23.5t28.5 -60.5q0 -49 -54 -69v-19h-66z" />
    <glyph glyph-name="uni1EC3" unicode="&#x1ec3;" horiz-adv-x="283" 
d="M142 -10q-58 0 -93 35.5t-35 94.5v310q0 59 35 94.5t93 35.5q57 0 92 -35.5t35 -94.5v-176h-143v-146q0 -17 16 -17q15 0 15 17v115h112v-103q0 -59 -35 -94.5t-92 -35.5zM44 590l57 135h82l57 -135h-60l-38 51l-38 -51h-60zM126 324h31v118q0 17 -15 17q-16 0 -16 -17
v-118zM208 703v40q35 7 35 27q0 25 -35 25v80h2q61 0 89.5 -23.5t28.5 -60.5q0 -49 -54 -69v-19h-66z" />
    <glyph glyph-name="uni1EC4" unicode="&#x1ec4;" horiz-adv-x="232" 
d="M16 0v750h202v-104h-90v-204h65v-104h-65v-234h90v-104h-202zM-7 969q-4 56 16.5 86.5t62.5 30.5q21 0 46.5 -20.5t32.5 -20.5q18 0 18 34h68q4 -56 -16.5 -86.5t-61.5 -30.5q-21 0 -47 20.5t-32 20.5q-18 0 -18 -34h-69zM21 790l57 135h82l57 -135h-60l-38 51l-38 -51
h-60z" />
    <glyph glyph-name="uni1EC5" unicode="&#x1ec5;" horiz-adv-x="283" 
d="M142 -10q-58 0 -93 35.5t-35 94.5v310q0 59 35 94.5t93 35.5q57 0 92 -35.5t35 -94.5v-176h-143v-146q0 -17 16 -17q15 0 15 17v115h112v-103q0 -59 -35 -94.5t-92 -35.5zM16 769q-4 56 16.5 86.5t62.5 30.5q21 0 46.5 -20.5t32.5 -20.5q18 0 18 34h68q4 -56 -16.5 -86.5
t-61.5 -30.5q-21 0 -47 20.5t-32 20.5q-18 0 -18 -34h-69zM44 590l57 135h82l57 -135h-60l-38 51l-38 -51h-60zM126 324h31v118q0 17 -15 17q-16 0 -16 -17v-118z" />
    <glyph glyph-name="uni1EC6" unicode="&#x1ec6;" horiz-adv-x="232" 
d="M16 0v750h202v-104h-90v-204h65v-104h-65v-234h90v-104h-202zM21 790l57 135h82l57 -135h-60l-38 51l-38 -51h-60zM49 -91q0 27 17.5 44t44.5 17q28 0 45 -17t17 -44q0 -28 -17 -45t-45 -17q-27 0 -44.5 17t-17.5 45z" />
    <glyph glyph-name="uni1EC7" unicode="&#x1ec7;" horiz-adv-x="283" 
d="M142 -10q-58 0 -93 35.5t-35 94.5v310q0 59 35 94.5t93 35.5q57 0 92 -35.5t35 -94.5v-176h-143v-146q0 -17 16 -17q15 0 15 17v115h112v-103q0 -59 -35 -94.5t-92 -35.5zM44 590l57 135h82l57 -135h-60l-38 51l-38 -51h-60zM80 -91q0 27 17.5 44t44.5 17q28 0 45 -17
t17 -44q0 -28 -17 -45t-45 -17q-27 0 -44.5 17t-17.5 45zM126 324h31v118q0 17 -15 17q-16 0 -16 -17v-118z" />
    <glyph glyph-name="uni1EC8" unicode="&#x1ec8;" horiz-adv-x="144" 
d="M16 0v750h112v-750h-112zM43 786v41q36 8 36 28q0 26 -36 26v84h2q64 0 93.5 -24.5t29.5 -63.5q0 -50 -56 -72v-19h-69z" />
    <glyph glyph-name="uni1EC9" unicode="&#x1ec9;" horiz-adv-x="144" 
d="M128 550v-550h-112v550h112zM42 586v41q36 8 36 28q0 26 -36 26v84h2q64 0 93.5 -24.5t29.5 -63.5q0 -50 -56 -72v-19h-69z" />
    <glyph glyph-name="uni1ECA" unicode="&#x1eca;" horiz-adv-x="144" 
d="M16 0v750h112v-750h-112zM11 -91q0 27 17.5 44t44.5 17q28 0 45 -17t17 -44q0 -28 -17 -45t-45 -17q-27 0 -44.5 17t-17.5 45z" />
    <glyph glyph-name="uni1ECB" unicode="&#x1ecb;" horiz-adv-x="144" 
d="M16 0v550h112v-550h-112zM5 686q0 29 19 48t48 19t48 -19t19 -48t-18.5 -48t-48.5 -19q-28 0 -47.5 19.5t-19.5 47.5zM10 -91q0 27 17.5 44t44.5 17q28 0 45 -17t17 -44q0 -28 -17 -45t-45 -17q-27 0 -44.5 17t-17.5 45z" />
    <glyph glyph-name="uni1ECC" unicode="&#x1ecc;" 
d="M144 -10q-57 0 -92.5 34t-35.5 86v530q0 52 35.5 86t92.5 34q56 0 91.5 -34t35.5 -86v-530q0 -52 -35.5 -86t-91.5 -34zM82 -91q0 27 17.5 44t44.5 17q28 0 45 -17t17 -44q0 -28 -17 -45t-45 -17q-27 0 -44.5 17t-17.5 45zM128 110q0 -17 16 -17q15 0 15 17v530
q0 17 -15 17q-16 0 -16 -17v-530z" />
    <glyph glyph-name="uni1ECD" unicode="&#x1ecd;" horiz-adv-x="283" 
d="M142 -10q-58 0 -93 35.5t-35 94.5v310q0 59 35 94.5t93 35.5q57 0 92 -35.5t35 -94.5v-310q0 -59 -35 -94.5t-92 -35.5zM80 -91q0 27 17.5 44t44.5 17q28 0 45 -17t17 -44q0 -28 -17 -45t-45 -17q-27 0 -44.5 17t-17.5 45zM126 110q0 -17 16 -17q15 0 15 17v330
q0 17 -15 17q-16 0 -16 -17v-330z" />
    <glyph glyph-name="uni1ECE" unicode="&#x1ece;" 
d="M144 -10q-57 0 -92.5 34t-35.5 86v530q0 52 35.5 86t92.5 34q56 0 91.5 -34t35.5 -86v-530q0 -52 -35.5 -86t-91.5 -34zM114 786v41q36 8 36 28q0 26 -36 26v84h2q64 0 93.5 -24.5t29.5 -63.5q0 -50 -56 -72v-19h-69zM128 110q0 -17 16 -17q15 0 15 17v530q0 17 -15 17
q-16 0 -16 -17v-530z" />
    <glyph glyph-name="uni1ECF" unicode="&#x1ecf;" horiz-adv-x="283" 
d="M142 -10q-58 0 -93 35.5t-35 94.5v310q0 59 35 94.5t93 35.5q57 0 92 -35.5t35 -94.5v-310q0 -59 -35 -94.5t-92 -35.5zM112 586v41q36 8 36 28q0 26 -36 26v84h2q64 0 93.5 -24.5t29.5 -63.5q0 -50 -56 -72v-19h-69zM126 110q0 -17 16 -17q15 0 15 17v330q0 17 -15 17
q-16 0 -16 -17v-330z" />
    <glyph glyph-name="uni1ED0" unicode="&#x1ed0;" 
d="M144 -10q-57 0 -92.5 34t-35.5 86v530q0 52 35.5 86t92.5 34q56 0 91.5 -34t35.5 -86v-530q0 -52 -35.5 -86t-91.5 -34zM46 790l57 135h82l57 -135h-60l-38 51l-38 -51h-60zM128 110q0 -17 16 -17q15 0 15 17v530q0 17 -15 17q-16 0 -16 -17v-530zM206 920l17 115h104
l-90 -115h-31z" />
    <glyph glyph-name="uni1ED1" unicode="&#x1ed1;" horiz-adv-x="283" 
d="M142 -10q-58 0 -93 35.5t-35 94.5v310q0 59 35 94.5t93 35.5q57 0 92 -35.5t35 -94.5v-310q0 -59 -35 -94.5t-92 -35.5zM44 590l57 135h82l57 -135h-60l-38 51l-38 -51h-60zM126 110q0 -17 16 -17q15 0 15 17v330q0 17 -15 17q-16 0 -16 -17v-330zM204 720l17 115h104
l-90 -115h-31z" />
    <glyph glyph-name="uni1ED2" unicode="&#x1ed2;" 
d="M144 -10q-57 0 -92.5 34t-35.5 86v530q0 52 35.5 86t92.5 34q56 0 91.5 -34t35.5 -86v-530q0 -52 -35.5 -86t-91.5 -34zM46 790l57 135h82l57 -135h-60l-38 51l-38 -51h-60zM128 110q0 -17 16 -17q15 0 15 17v530q0 17 -15 17q-16 0 -16 -17v-530zM155 1035h104l17 -115
h-31z" />
    <glyph glyph-name="uni1ED3" unicode="&#x1ed3;" horiz-adv-x="283" 
d="M142 -10q-58 0 -93 35.5t-35 94.5v310q0 59 35 94.5t93 35.5q57 0 92 -35.5t35 -94.5v-310q0 -59 -35 -94.5t-92 -35.5zM44 590l57 135h82l57 -135h-60l-38 51l-38 -51h-60zM126 110q0 -17 16 -17q15 0 15 17v330q0 17 -15 17q-16 0 -16 -17v-330zM153 835h104l17 -115
h-31z" />
    <glyph glyph-name="uni1ED4" unicode="&#x1ed4;" 
d="M144 -10q-57 0 -92.5 34t-35.5 86v530q0 52 35.5 86t92.5 34q56 0 91.5 -34t35.5 -86v-530q0 -52 -35.5 -86t-91.5 -34zM46 790l57 135h82l57 -135h-60l-38 51l-38 -51h-60zM128 110q0 -17 16 -17q15 0 15 17v530q0 17 -15 17q-16 0 -16 -17v-530zM210 903v40q35 7 35 27
q0 25 -35 25v80h2q61 0 89.5 -23.5t28.5 -60.5q0 -49 -54 -69v-19h-66z" />
    <glyph glyph-name="uni1ED5" unicode="&#x1ed5;" horiz-adv-x="283" 
d="M142 -10q-58 0 -93 35.5t-35 94.5v310q0 59 35 94.5t93 35.5q57 0 92 -35.5t35 -94.5v-310q0 -59 -35 -94.5t-92 -35.5zM44 590l57 135h82l57 -135h-60l-38 51l-38 -51h-60zM126 110q0 -17 16 -17q15 0 15 17v330q0 17 -15 17q-16 0 -16 -17v-330zM208 703v40q35 7 35 27
q0 25 -35 25v80h2q61 0 89.5 -23.5t28.5 -60.5q0 -49 -54 -69v-19h-66z" />
    <glyph glyph-name="uni1ED6" unicode="&#x1ed6;" 
d="M144 -10q-57 0 -92.5 34t-35.5 86v530q0 52 35.5 86t92.5 34q56 0 91.5 -34t35.5 -86v-530q0 -52 -35.5 -86t-91.5 -34zM18 969q-4 56 16.5 86.5t62.5 30.5q21 0 46.5 -20.5t32.5 -20.5q18 0 18 34h68q4 -56 -16.5 -86.5t-61.5 -30.5q-21 0 -47 20.5t-32 20.5
q-18 0 -18 -34h-69zM46 790l57 135h82l57 -135h-60l-38 51l-38 -51h-60zM128 110q0 -17 16 -17q15 0 15 17v530q0 17 -15 17q-16 0 -16 -17v-530z" />
    <glyph glyph-name="uni1ED7" unicode="&#x1ed7;" horiz-adv-x="283" 
d="M142 -10q-58 0 -93 35.5t-35 94.5v310q0 59 35 94.5t93 35.5q57 0 92 -35.5t35 -94.5v-310q0 -59 -35 -94.5t-92 -35.5zM16 769q-4 56 16.5 86.5t62.5 30.5q21 0 46.5 -20.5t32.5 -20.5q18 0 18 34h68q4 -56 -16.5 -86.5t-61.5 -30.5q-21 0 -47 20.5t-32 20.5
q-18 0 -18 -34h-69zM44 590l57 135h82l57 -135h-60l-38 51l-38 -51h-60zM126 110q0 -17 16 -17q15 0 15 17v330q0 17 -15 17q-16 0 -16 -17v-330z" />
    <glyph glyph-name="uni1ED8" unicode="&#x1ed8;" 
d="M144 -10q-57 0 -92.5 34t-35.5 86v530q0 52 35.5 86t92.5 34q56 0 91.5 -34t35.5 -86v-530q0 -52 -35.5 -86t-91.5 -34zM46 790l57 135h82l57 -135h-60l-38 51l-38 -51h-60zM82 -91q0 27 17.5 44t44.5 17q28 0 45 -17t17 -44q0 -28 -17 -45t-45 -17q-27 0 -44.5 17
t-17.5 45zM128 110q0 -17 16 -17q15 0 15 17v530q0 17 -15 17q-16 0 -16 -17v-530z" />
    <glyph glyph-name="uni1ED9" unicode="&#x1ed9;" horiz-adv-x="283" 
d="M142 -10q-58 0 -93 35.5t-35 94.5v310q0 59 35 94.5t93 35.5q57 0 92 -35.5t35 -94.5v-310q0 -59 -35 -94.5t-92 -35.5zM44 590l57 135h82l57 -135h-60l-38 51l-38 -51h-60zM80 -91q0 27 17.5 44t44.5 17q28 0 45 -17t17 -44q0 -28 -17 -45t-45 -17q-27 0 -44.5 17
t-17.5 45zM126 110q0 -17 16 -17q15 0 15 17v330q0 17 -15 17q-16 0 -16 -17v-330z" />
    <glyph glyph-name="uni1EDA" unicode="&#x1eda;" horiz-adv-x="307" 
d="M144 -10q-57 0 -92.5 34t-35.5 86v530q0 52 34.5 86t87.5 34q14 0 32.5 -3.5t24.5 -3.5q18 0 24.5 11.5t6.5 38.5q0 31 -12 66h96q15 -41 15 -73q0 -80 -70 -102q16 -23 16 -54v-530q0 -52 -35.5 -86t-91.5 -34zM109 790l20 135h123l-106 -135h-37zM128 110q0 -17 16 -17
q15 0 15 17v530q0 17 -15 17q-16 0 -16 -17v-530z" />
    <glyph glyph-name="uni1EDB" unicode="&#x1edb;" horiz-adv-x="315" 
d="M142 -10q-58 0 -93 35.5t-35 94.5v310q0 60 32.5 95t88.5 35q15 0 31 -3t23 -3q15 0 25.5 10.5t10.5 30.5q0 32 -13 74h92q12 -36 12 -73q0 -76 -61 -102q14 -28 14 -64v-310q0 -59 -35 -94.5t-92 -35.5zM110 590l20 135h123l-106 -135h-37zM126 110q0 -17 16 -17
q15 0 15 17v330q0 17 -15 17q-16 0 -16 -17v-330z" />
    <glyph glyph-name="uni1EDC" unicode="&#x1edc;" horiz-adv-x="307" 
d="M144 -10q-57 0 -92.5 34t-35.5 86v530q0 52 34.5 86t87.5 34q14 0 32.5 -3.5t24.5 -3.5q18 0 24.5 11.5t6.5 38.5q0 31 -12 66h96q15 -41 15 -73q0 -80 -70 -102q16 -23 16 -54v-530q0 -52 -35.5 -86t-91.5 -34zM16 925h123l20 -135h-37zM128 110q0 -17 16 -17
q15 0 15 17v530q0 17 -15 17q-16 0 -16 -17v-530z" />
    <glyph glyph-name="uni1EDD" unicode="&#x1edd;" horiz-adv-x="315" 
d="M142 -10q-58 0 -93 35.5t-35 94.5v310q0 60 32.5 95t88.5 35q15 0 31 -3t23 -3q15 0 25.5 10.5t10.5 30.5q0 32 -13 74h92q12 -36 12 -73q0 -76 -61 -102q14 -28 14 -64v-310q0 -59 -35 -94.5t-92 -35.5zM17 725h123l20 -135h-37zM126 110q0 -17 16 -17q15 0 15 17v330
q0 17 -15 17q-16 0 -16 -17v-330z" />
    <glyph glyph-name="uni1EDE" unicode="&#x1ede;" horiz-adv-x="307" 
d="M144 -10q-57 0 -92.5 34t-35.5 86v530q0 52 34.5 86t87.5 34q14 0 32.5 -3.5t24.5 -3.5q18 0 24.5 11.5t6.5 38.5q0 31 -12 66h96q15 -41 15 -73q0 -80 -70 -102q16 -23 16 -54v-530q0 -52 -35.5 -86t-91.5 -34zM84 786v41q36 8 36 28q0 26 -36 26v84h2q64 0 93.5 -24.5
t29.5 -63.5q0 -50 -56 -72v-19h-69zM128 110q0 -17 16 -17q15 0 15 17v530q0 17 -15 17q-16 0 -16 -17v-530z" />
    <glyph glyph-name="uni1EDF" unicode="&#x1edf;" horiz-adv-x="315" 
d="M142 -10q-58 0 -93 35.5t-35 94.5v310q0 60 32.5 95t88.5 35q15 0 31 -3t23 -3q15 0 25.5 10.5t10.5 30.5q0 32 -13 74h92q12 -36 12 -73q0 -76 -61 -102q14 -28 14 -64v-310q0 -59 -35 -94.5t-92 -35.5zM68 586v41q36 8 36 28q0 26 -36 26v84h2q64 0 93.5 -24.5
t29.5 -63.5q0 -50 -56 -72v-19h-69zM126 110q0 -17 16 -17q15 0 15 17v330q0 17 -15 17q-16 0 -16 -17v-330z" />
    <glyph glyph-name="uni1EE0" unicode="&#x1ee0;" horiz-adv-x="307" 
d="M144 -10q-57 0 -92.5 34t-35.5 86v530q0 52 34.5 86t87.5 34q14 0 32.5 -3.5t24.5 -3.5q18 0 24.5 11.5t6.5 38.5q0 31 -12 66h96q15 -41 15 -73q0 -80 -70 -102q16 -23 16 -54v-530q0 -52 -35.5 -86t-91.5 -34zM21 798q-9 129 55 129q18 0 28.5 -11.5t17.5 -22.5t16 -11
q15 0 15 37h55q5 -65 -7 -97t-49 -32q-14 0 -23.5 7t-14 15.5t-10 15.5t-12.5 7q-16 0 -16 -37h-55zM128 110q0 -17 16 -17q15 0 15 17v530q0 17 -15 17q-16 0 -16 -17v-530z" />
    <glyph glyph-name="uni1EE1" unicode="&#x1ee1;" horiz-adv-x="315" 
d="M142 -10q-58 0 -93 35.5t-35 94.5v310q0 60 32.5 95t88.5 35q15 0 31 -3t23 -3q15 0 25.5 10.5t10.5 30.5q0 32 -13 74h92q12 -36 12 -73q0 -76 -61 -102q14 -28 14 -64v-310q0 -59 -35 -94.5t-92 -35.5zM8 598q-9 129 55 129q18 0 28.5 -11.5t17.5 -22.5t16 -11
q15 0 15 37h55q5 -65 -7 -97t-49 -32q-14 0 -23.5 7t-14 15.5t-10 15.5t-12.5 7q-16 0 -16 -37h-55zM126 110q0 -17 16 -17q15 0 15 17v330q0 17 -15 17q-16 0 -16 -17v-330z" />
    <glyph glyph-name="uni1EE2" unicode="&#x1ee2;" horiz-adv-x="307" 
d="M144 -10q-57 0 -92.5 34t-35.5 86v530q0 52 34.5 86t87.5 34q14 0 32.5 -3.5t24.5 -3.5q18 0 24.5 11.5t6.5 38.5q0 31 -12 66h96q15 -41 15 -73q0 -80 -70 -102q16 -23 16 -54v-530q0 -52 -35.5 -86t-91.5 -34zM92 -91q0 27 17.5 44t44.5 17q28 0 45 -17t17 -44
q0 -28 -17 -45t-45 -17q-27 0 -44.5 17t-17.5 45zM128 110q0 -17 16 -17q15 0 15 17v530q0 17 -15 17q-16 0 -16 -17v-530z" />
    <glyph glyph-name="uni1EE3" unicode="&#x1ee3;" horiz-adv-x="315" 
d="M142 -10q-58 0 -93 35.5t-35 94.5v310q0 60 32.5 95t88.5 35q15 0 31 -3t23 -3q15 0 25.5 10.5t10.5 30.5q0 32 -13 74h92q12 -36 12 -73q0 -76 -61 -102q14 -28 14 -64v-310q0 -59 -35 -94.5t-92 -35.5zM76 -91q0 27 17.5 44t44.5 17q28 0 45 -17t17 -44q0 -28 -17 -45
t-45 -17q-27 0 -44.5 17t-17.5 45zM126 110q0 -17 16 -17q15 0 15 17v330q0 17 -15 17q-16 0 -16 -17v-330z" />
    <glyph glyph-name="uni1EE4" unicode="&#x1ee4;" 
d="M144 -8q-57 0 -92.5 34t-35.5 86v638h113v-638q0 -16 15 -16q14 0 14 16v638h113v-638q0 -52 -35.5 -86t-91.5 -34zM82 -91q0 27 17.5 44t44.5 17q28 0 45 -17t17 -44q0 -28 -17 -45t-45 -17q-27 0 -44.5 17t-17.5 45z" />
    <glyph glyph-name="uni1EE5" unicode="&#x1ee5;" horiz-adv-x="285" 
d="M88 -10q-74 0 -74 108v452h112v-412q0 -24 15 -24q16 0 16 27v409h112v-550h-92l-13 62h-3q-7 -34 -23 -53t-50 -19zM81 -91q0 27 17.5 44t44.5 17q28 0 45 -17t17 -44q0 -28 -17 -45t-45 -17q-27 0 -44.5 17t-17.5 45z" />
    <glyph glyph-name="uni1EE6" unicode="&#x1ee6;" 
d="M144 -8q-57 0 -92.5 34t-35.5 86v638h113v-638q0 -16 15 -16q14 0 14 16v638h113v-638q0 -52 -35.5 -86t-91.5 -34zM114 786v41q36 8 36 28q0 26 -36 26v84h2q64 0 93.5 -24.5t29.5 -63.5q0 -50 -56 -72v-19h-69z" />
    <glyph glyph-name="uni1EE7" unicode="&#x1ee7;" horiz-adv-x="285" 
d="M88 -10q-74 0 -74 108v452h112v-412q0 -24 15 -24q16 0 16 27v409h112v-550h-92l-13 62h-3q-7 -34 -23 -53t-50 -19zM113 586v41q36 8 36 28q0 26 -36 26v84h2q64 0 93.5 -24.5t29.5 -63.5q0 -50 -56 -72v-19h-69z" />
    <glyph glyph-name="uni1EE8" unicode="&#x1ee8;" horiz-adv-x="337" 
d="M144 -8q-57 0 -92.5 34t-35.5 86v638h113v-638q0 -16 15 -16q14 0 14 16v638h37q30 0 44 12t14 41q0 31 -12 66h99q15 -41 15 -73q0 -90 -84 -110v-574q0 -52 -35.5 -86t-91.5 -34zM118 790l20 135h123l-106 -135h-37z" />
    <glyph glyph-name="uni1EE9" unicode="&#x1ee9;" horiz-adv-x="325" 
d="M88 -10q-74 0 -74 108v452h112v-412q0 -24 15 -24q16 0 16 27v409h10q30 0 44 12t14 41t-11 63l-60 -76h-37l20 135h123l-44 -56h96q15 -41 15 -73q0 -74 -58 -101v-495h-92l-13 62h-3q-7 -34 -23 -53t-50 -19z" />
    <glyph glyph-name="uni1EEA" unicode="&#x1eea;" horiz-adv-x="337" 
d="M144 -8q-57 0 -92.5 34t-35.5 86v638h113v-638q0 -16 15 -16q14 0 14 16v638h37q30 0 44 12t14 41q0 31 -12 66h99q15 -41 15 -73q0 -90 -84 -110v-574q0 -52 -35.5 -86t-91.5 -34zM25 925h123l20 -135h-37z" />
    <glyph glyph-name="uni1EEB" unicode="&#x1eeb;" horiz-adv-x="325" 
d="M88 -10q-74 0 -74 108v452h112v-412q0 -24 15 -24q16 0 16 27v409h10q30 0 44 12t14 41q0 31 -12 66h99q15 -41 15 -73q0 -74 -58 -101v-495h-92l-13 62h-3q-7 -34 -23 -53t-50 -19zM24 725h123l20 -135h-37z" />
    <glyph glyph-name="uni1EEC" unicode="&#x1eec;" horiz-adv-x="337" 
d="M144 -8q-57 0 -92.5 34t-35.5 86v638h113v-638q0 -16 15 -16q14 0 14 16v638h37q30 0 44 12t14 41q0 31 -12 66h99q15 -41 15 -73q0 -90 -84 -110v-574q0 -52 -35.5 -86t-91.5 -34zM96 786v41q36 8 36 28q0 26 -36 26v84h2q64 0 93.5 -24.5t29.5 -63.5q0 -50 -56 -72v-19
h-69z" />
    <glyph glyph-name="uni1EED" unicode="&#x1eed;" horiz-adv-x="325" 
d="M88 -10q-74 0 -74 108v452h112v-412q0 -24 15 -24q16 0 16 27v409h10q30 0 44 12t14 41q0 31 -12 66h99q15 -41 15 -73q0 -74 -58 -101v-495h-92l-13 62h-3q-7 -34 -23 -53t-50 -19zM73 586v41q36 8 36 28q0 26 -36 26v84h2q64 0 93.5 -24.5t29.5 -63.5q0 -50 -56 -72
v-19h-69z" />
    <glyph glyph-name="uni1EEE" unicode="&#x1eee;" horiz-adv-x="337" 
d="M144 -8q-57 0 -92.5 34t-35.5 86v638h113v-638q0 -16 15 -16q14 0 14 16v638h37q30 0 44 12t14 41q0 31 -12 66h99q15 -41 15 -73q0 -90 -84 -110v-574q0 -52 -35.5 -86t-91.5 -34zM40 798q-9 129 55 129q18 0 28.5 -11.5t17.5 -22.5t16 -11q15 0 15 37h55q5 -65 -7 -97
t-49 -32q-14 0 -23.5 7t-14 15.5t-10 15.5t-12.5 7q-16 0 -16 -37h-55z" />
    <glyph glyph-name="uni1EEF" unicode="&#x1eef;" horiz-adv-x="325" 
d="M88 -10q-74 0 -74 108v452h112v-412q0 -24 15 -24q16 0 16 27v409h10q30 0 44 12t14 41v11q-13 -24 -45 -24q-14 0 -23.5 7t-14 15.5t-10 15.5t-12.5 7q-16 0 -16 -37h-55q-9 129 55 129q18 0 28.5 -11.5t17.5 -22.5t16 -11q15 0 15 37h55q2 -35 1 -50h75q15 -41 15 -73
q0 -74 -58 -101v-495h-92l-13 62h-3q-7 -34 -23 -53t-50 -19z" />
    <glyph glyph-name="uni1EF0" unicode="&#x1ef0;" horiz-adv-x="337" 
d="M144 -8q-57 0 -92.5 34t-35.5 86v638h113v-638q0 -16 15 -16q14 0 14 16v638h37q30 0 44 12t14 41q0 31 -12 66h99q15 -41 15 -73q0 -90 -84 -110v-574q0 -52 -35.5 -86t-91.5 -34zM82 -91q0 27 17.5 44t44.5 17q28 0 45 -17t17 -44q0 -28 -17 -45t-45 -17
q-27 0 -44.5 17t-17.5 45z" />
    <glyph glyph-name="uni1EF1" unicode="&#x1ef1;" horiz-adv-x="325" 
d="M88 -10q-74 0 -74 108v452h112v-412q0 -24 15 -24q16 0 16 27v409h10q30 0 44 12t14 41q0 31 -12 66h99q15 -41 15 -73q0 -74 -58 -101v-495h-92l-13 62h-3q-7 -34 -23 -53t-50 -19zM81 -91q0 27 17.5 44t44.5 17q28 0 45 -17t17 -44q0 -28 -17 -45t-45 -17
q-27 0 -44.5 17t-17.5 45z" />
    <glyph glyph-name="Ygrave" unicode="&#x1ef2;" horiz-adv-x="269" 
d="M78 0v240l-80 510h112l26 -307l25 307h110l-81 -511v-239h-112zM15 925h123l20 -135h-37z" />
    <glyph glyph-name="ygrave" unicode="&#x1ef3;" horiz-adv-x="280" 
d="M47 -187q-21 0 -38 4v111q9 -3 25 -3q35 0 52.5 14.5t24.5 53.5l6 37h-56l-58 520h121l18 -400h2l18 400h115l-60 -540q-12 -107 -52 -152t-118 -45zM21 725h123l20 -135h-37z" />
    <glyph glyph-name="uni1EF4" unicode="&#x1ef4;" horiz-adv-x="269" 
d="M78 0v240l-80 510h112l26 -307l25 307h110l-81 -511v-239h-112zM72 -91q0 27 17.5 44t44.5 17q28 0 45 -17t17 -44q0 -28 -17 -45t-45 -17q-27 0 -44.5 17t-17.5 45z" />
    <glyph glyph-name="uni1EF5" unicode="&#x1ef5;" horiz-adv-x="280" 
d="M47 -187q-21 0 -38 4v111q9 -3 25 -3q35 0 52.5 14.5t24.5 53.5l6 37h-56l-58 520h121l18 -400h2l18 400h115l-60 -540q-12 -107 -52 -152t-118 -45zM217 -91q0 27 17.5 44t44.5 17q28 0 45 -17t17 -44q0 -28 -17 -45t-45 -17q-27 0 -44.5 17t-17.5 45z" />
    <glyph glyph-name="uni1EF6" unicode="&#x1ef6;" horiz-adv-x="269" 
d="M78 0v240l-80 510h112l26 -307l25 307h110l-81 -511v-239h-112zM104 786v41q36 8 36 28q0 26 -36 26v84h2q64 0 93.5 -24.5t29.5 -63.5q0 -50 -56 -72v-19h-69z" />
    <glyph glyph-name="uni1EF7" unicode="&#x1ef7;" horiz-adv-x="280" 
d="M47 -187q-21 0 -38 4v111q9 -3 25 -3q35 0 52.5 14.5t24.5 53.5l6 37h-56l-58 520h121l18 -400h2l18 400h115l-60 -540q-12 -107 -52 -152t-118 -45zM110 586v41q36 8 36 28q0 26 -36 26v84h2q64 0 93.5 -24.5t29.5 -63.5q0 -50 -56 -72v-19h-69z" />
    <glyph glyph-name="uni1EF8" unicode="&#x1ef8;" horiz-adv-x="269" 
d="M78 0v240l-80 510h112l26 -307l25 307h110l-81 -511v-239h-112zM0 798q-5 62 17.5 95.5t68.5 33.5q23 0 51.5 -22.5t35.5 -22.5q20 0 20 37h75q5 -62 -17.5 -95.5t-68.5 -33.5q-23 0 -51.5 22.5t-35.5 22.5q-20 0 -20 -37h-75z" />
    <glyph glyph-name="uni1EF9" unicode="&#x1ef9;" horiz-adv-x="280" 
d="M47 -187q-21 0 -38 4v111q9 -3 25 -3q35 0 52.5 14.5t24.5 53.5l6 37h-56l-58 520h121l18 -400h2l18 400h115l-60 -540q-12 -107 -52 -152t-118 -45zM6 598q-5 62 17.5 95.5t68.5 33.5q23 0 51.5 -22.5t35.5 -22.5q20 0 20 37h75q5 -62 -17.5 -95.5t-68.5 -33.5
q-23 0 -51.5 22.5t-35.5 22.5q-20 0 -20 -37h-75z" />
    <glyph glyph-name="uni2000" unicode="&#x2000;" horiz-adv-x="500" 
 />
    <glyph glyph-name="uni2001" unicode="&#x2001;" horiz-adv-x="1000" 
 />
    <glyph glyph-name="uni2002" unicode="&#x2002;" horiz-adv-x="500" 
 />
    <glyph glyph-name="uni2003" unicode="&#x2003;" horiz-adv-x="1000" 
 />
    <glyph glyph-name="uni2004" unicode="&#x2004;" horiz-adv-x="333" 
 />
    <glyph glyph-name="uni2005" unicode="&#x2005;" horiz-adv-x="250" 
 />
    <glyph glyph-name="uni2006" unicode="&#x2006;" horiz-adv-x="167" 
 />
    <glyph glyph-name="uni2007" unicode="&#x2007;" 
 />
    <glyph glyph-name="uni2008" unicode="&#x2008;" horiz-adv-x="158" 
 />
    <glyph glyph-name="uni2009" unicode="&#x2009;" horiz-adv-x="200" 
 />
    <glyph glyph-name="uni200A" unicode="&#x200a;" horiz-adv-x="143" 
 />
    <glyph glyph-name="uni200B" unicode="&#x200b;" horiz-adv-x="0" 
 />
    <glyph glyph-name="endash" unicode="&#x2013;" horiz-adv-x="230" 
d="M15 393h200v-109h-200v109z" />
    <glyph glyph-name="emdash" unicode="&#x2014;" horiz-adv-x="330" 
d="M15 393h300v-109h-300v109z" />
    <glyph glyph-name="quoteleft" unicode="&#x2018;" horiz-adv-x="158" 
d="M17 580q0 16 9 39l57 142l45 -18l-39 -102q24 -3 38 -19.5t14 -41.5q0 -27 -17.5 -44t-44.5 -17t-44.5 17t-17.5 44z" />
    <glyph glyph-name="quoteright" unicode="&#x2019;" horiz-adv-x="158" 
d="M141 699q0 -16 -9 -39l-57 -142l-45 18l39 102q-24 3 -38 19.5t-14 41.5q0 27 17.5 44t44.5 17t44.5 -17t17.5 -44z" />
    <glyph glyph-name="quotesinglbase" unicode="&#x201a;" horiz-adv-x="158" 
d="M141 55q0 -16 -9 -39l-57 -142l-45 18l39 102q-24 3 -38 19.5t-14 41.5q0 27 17.5 44t44.5 17t44.5 -17t17.5 -44z" />
    <glyph glyph-name="quotedblleft" unicode="&#x201c;" horiz-adv-x="298" 
d="M17 580q0 16 9 39l57 142l45 -18l-39 -102q24 -3 38 -19.5t14 -41.5q0 -27 -17.5 -44t-44.5 -17t-44.5 17t-17.5 44zM157 580q0 16 9 39l57 142l45 -18l-39 -102q24 -3 38 -19.5t14 -41.5q0 -27 -17.5 -44t-44.5 -17t-44.5 17t-17.5 44z" />
    <glyph glyph-name="quotedblright" unicode="&#x201d;" horiz-adv-x="298" 
d="M281 699q0 -16 -9 -39l-57 -142l-45 18l39 102q-24 3 -38 19.5t-14 41.5q0 27 17.5 44t44.5 17t44.5 -17t17.5 -44zM17 699q0 27 17.5 44t44.5 17t44.5 -17t17.5 -44q0 -16 -9 -39l-57 -142l-45 18l39 102q-24 3 -38 19.5t-14 41.5z" />
    <glyph glyph-name="quotedblbase" unicode="&#x201e;" horiz-adv-x="298" 
d="M281 55q0 -16 -9 -39l-57 -142l-45 18l39 102q-24 3 -38 19.5t-14 41.5q0 27 17.5 44t44.5 17t44.5 -17t17.5 -44zM315 690q0 27 17.5 44t44.5 17t44.5 -17t17.5 -44q0 -16 -9 -39l-57 -142l-45 18l39 102q-24 3 -38 19.5t-14 41.5z" />
    <glyph glyph-name="dagger" unicode="&#x2020;" horiz-adv-x="276" 
d="M269 565v-104h-75v-362h-112v362h-75v104h75v184h112v-184h75z" />
    <glyph glyph-name="daggerdbl" unicode="&#x2021;" horiz-adv-x="316" 
d="M214 750v-186h95v-104h-302v104h95v186h112zM7 276v104h302v-104h-95v-186h-112v186h-95z" />
    <glyph glyph-name="bullet" unicode="&#x2022;" horiz-adv-x="191" 
d="M96 219q-36 0 -58.5 22.5t-22.5 58.5q0 34 23 56.5t58 22.5q36 0 58 -22t22 -57q0 -37 -22 -59t-58 -22z" />
    <glyph glyph-name="ellipsis" unicode="&#x2026;" horiz-adv-x="438" 
d="M79 -7q-27 0 -44.5 17t-17.5 45q0 27 17.5 44t44.5 17q28 0 45 -17t17 -44q0 -28 -17 -45t-45 -17zM157 55q0 27 17.5 44t44.5 17q28 0 45 -17t17 -44q0 -28 -17 -45t-45 -17q-27 0 -44.5 17t-17.5 45zM297 55q0 27 17.5 44t44.5 17q28 0 45 -17t17 -44q0 -28 -17 -45
t-45 -17q-27 0 -44.5 17t-17.5 45z" />
    <glyph glyph-name="uni202F" unicode="&#x202f;" horiz-adv-x="80" 
 />
    <glyph glyph-name="perthousand" unicode="&#x2030;" horiz-adv-x="754" 
d="M443 750h65l-421 -750h-65zM26 438v229q0 38 29 64t74 26q46 0 75 -26t29 -64v-229q0 -38 -29 -63.5t-74 -25.5q-46 0 -75 25.5t-29 63.5zM120 446q0 -11 10 -11q9 0 9 11v213q0 11 -9 11q-10 0 -10 -11v-213zM295 78v229q0 38 29 64t74 26q46 0 75 -26t29 -64v-229
q0 -38 -29 -63.5t-74 -25.5q-46 0 -75 25.5t-29 63.5zM389 86q0 -11 10 -11q9 0 9 11v213q0 11 -9 11q-10 0 -10 -11v-213zM525 78v229q0 38 29 64t74 26q46 0 75 -26t29 -64v-229q0 -38 -29 -63.5t-74 -25.5q-46 0 -75 25.5t-29 63.5zM619 86q0 -11 10 -11q9 0 9 11v213
q0 11 -9 11q-10 0 -10 -11v-213z" />
    <glyph glyph-name="minute" unicode="&#x2032;" horiz-adv-x="169" 
d="M87 761q26 0 42.5 -16.5t16.5 -44.5q0 -27 -30 -84l-47 -89h-46v167q0 30 18.5 48.5t45.5 18.5z" />
    <glyph glyph-name="second" unicode="&#x2033;" horiz-adv-x="319" 
d="M87 761q26 0 42.5 -16.5t16.5 -44.5q0 -27 -30 -84l-47 -89h-46v167q0 30 18.5 48.5t45.5 18.5zM173 527v167q0 30 18.5 48.5t45.5 18.5q26 0 42.5 -16.5t16.5 -44.5q0 -27 -30 -84l-47 -89h-46z" />
    <glyph glyph-name="guilsinglleft" unicode="&#x2039;" horiz-adv-x="221" 
d="M90 83l-85 191l85 191h124l-86 -191l86 -191h-124z" />
    <glyph glyph-name="guilsinglright" unicode="&#x203a;" horiz-adv-x="221" 
d="M131 467l85 -191l-85 -191h-124l86 191l-86 191h124z" />
    <glyph glyph-name="fraction" unicode="&#x2044;" horiz-adv-x="148" 
d="M174 750l-100 -750h-102l100 750h102z" />
    <glyph glyph-name="uni2053" unicode="&#x2053;" horiz-adv-x="300" 
d="M198 230q-23 0 -51.5 22.5t-35.5 22.5q-20 0 -20 -37h-75q-9 149 86 149q23 0 51.5 -22.5t35.5 -22.5q20 0 20 37h75q9 -149 -86 -149z" />
    <glyph glyph-name="uni205F" unicode="&#x205f;" horiz-adv-x="222" 
 />
    <glyph glyph-name="uni2070" unicode="&#x2070;" horiz-adv-x="220" 
d="M110 247q-43 0 -68.5 24.5t-25.5 65.5v329q0 41 25.5 65.5t68.5 24.5t68.5 -24.5t25.5 -65.5v-329q0 -41 -25.5 -65.5t-68.5 -24.5zM99 338q0 -12 11 -12q10 0 10 12v327q0 12 -10 12q-11 0 -11 -12v-327z" />
    <glyph glyph-name="uni2074" unicode="&#x2074;" horiz-adv-x="215" 
d="M111 254v93h-105v71l37 331h85l-34 -325h17v75h83v-75h22v-77h-22v-93h-83z" />
    <glyph glyph-name="uni2075" unicode="&#x2075;" horiz-adv-x="214" 
d="M106 249q-37 0 -65.5 23t-28.5 55v80h85v-68q0 -11 9 -11q10 0 10 11v162q0 10 -10 10t-10 -10v-33h-83v51l8 231h166v-79h-93l-3 -98q13 10 31 10q33 0 56.5 -20.5t23.5 -56.5v-178q0 -33 -28.5 -56t-67.5 -23z" />
    <glyph glyph-name="uni2076" unicode="&#x2076;" horiz-adv-x="224" 
d="M112 247q-41 0 -68.5 23t-27.5 57v343q0 37 27.5 61.5t68.5 24.5t68.5 -25t27.5 -63v-64h-86v62q0 11 -10 11t-10 -11v-120q15 9 30 9q32 0 54 -19.5t22 -57.5v-151q0 -34 -27.5 -57t-68.5 -23zM102 337q0 -11 10 -11t10 11v125q0 11 -10 11t-10 -11v-125z" />
    <glyph glyph-name="uni2077" unicode="&#x2077;" horiz-adv-x="176" 
d="M12 254l70 418h-76v78h160v-65l-72 -431h-82z" />
    <glyph glyph-name="uni2078" unicode="&#x2078;" horiz-adv-x="225" 
d="M112 247q-40 0 -68 24.5t-28 65.5v105q0 25 6.5 40.5t26.5 30.5q-33 23 -33 70v83q0 41 28 65.5t68 24.5q41 0 69 -24.5t28 -65.5v-83q0 -47 -33 -71q33 -24 33 -70v-105q0 -41 -28 -65.5t-69 -24.5zM101 337q0 -12 11 -12q12 0 12 12v122q0 14 -12 14q-11 0 -11 -14
v-122zM102 561q0 -14 10 -14q11 0 11 14v106q0 11 -11 11q-10 0 -10 -11v-106z" />
    <glyph glyph-name="uni2079" unicode="&#x2079;" horiz-adv-x="224" 
d="M112 756q41 0 68.5 -23t27.5 -57v-343q0 -37 -27.5 -61.5t-68.5 -24.5t-68.5 25t-27.5 63v64h86v-62q0 -11 10 -11t10 11v120q-15 -9 -30 -9q-32 0 -54 19.5t-22 57.5v151q0 34 27.5 57t68.5 23zM102 541q0 -11 10 -11t10 11v125q0 11 -10 11t-10 -11v-125z" />
    <glyph glyph-name="uni2080" unicode="&#x2080;" horiz-adv-x="220" 
d="M110 -7q-43 0 -68.5 24.5t-25.5 65.5v329q0 41 25.5 65.5t68.5 24.5t68.5 -24.5t25.5 -65.5v-329q0 -41 -25.5 -65.5t-68.5 -24.5zM99 84q0 -12 11 -12q10 0 10 12v327q0 12 -10 12q-11 0 -11 -12v-327z" />
    <glyph glyph-name="uni2081" unicode="&#x2081;" horiz-adv-x="187" 
d="M8 0v76h44v344h-44v76h128v-420h38v-76h-166z" />
    <glyph glyph-name="uni2082" unicode="&#x2082;" horiz-adv-x="212" 
d="M13 147q0 14 3 27t6.5 22t11 19t11.5 14.5t13.5 14l12.5 12.5t12.5 12t13 13t9.5 12t8 16.5t2 19.5v87q0 9 -9 9t-9 -9v-75h-86v79q0 35 27 58.5t65 23.5q42 0 70 -23t28 -59v-99q0 -18 -3 -32t-10 -26t-12 -18t-16.5 -18t-15.5 -16q-19 -21 -23 -26t-12 -17t-9 -20
t-1 -21v-50h102v-77h-189v147z" />
    <glyph glyph-name="uni2083" unicode="&#x2083;" horiz-adv-x="226" 
d="M102 -7q-37 0 -63 27t-26 65v69h86v-68q0 -14 11 -14h3q11 0 11 14v122q0 4 -4 8t-10 4h-56v80h53q17 0 17 14v96q0 13 -13 13h-1q-13 0 -13 -13v-69h-86v68q0 41 26.5 67t68.5 26h8q42 0 69 -27t27 -67v-93q0 -33 -24 -55q24 -24 24 -54v-122q0 -38 -26 -64.5t-64 -26.5
h-18z" />
    <glyph glyph-name="uni2084" unicode="&#x2084;" horiz-adv-x="215" 
d="M111 0v93h-105v71l37 331h85l-34 -325h17v75h83v-75h22v-77h-22v-93h-83z" />
    <glyph glyph-name="uni2085" unicode="&#x2085;" horiz-adv-x="214" 
d="M106 -5q-37 0 -65.5 23t-28.5 55v80h85v-68q0 -11 9 -11q10 0 10 11v162q0 10 -10 10t-10 -10v-33h-83v51l8 231h166v-79h-93l-3 -98q13 10 31 10q33 0 56.5 -20.5t23.5 -56.5v-178q0 -33 -28.5 -56t-67.5 -23z" />
    <glyph glyph-name="uni2086" unicode="&#x2086;" horiz-adv-x="224" 
d="M112 -7q-41 0 -68.5 23t-27.5 57v343q0 37 27.5 61.5t68.5 24.5t68.5 -25t27.5 -63v-64h-86v62q0 11 -10 11t-10 -11v-120q15 9 30 9q32 0 54 -19.5t22 -57.5v-151q0 -34 -27.5 -57t-68.5 -23zM102 83q0 -11 10 -11t10 11v125q0 11 -10 11t-10 -11v-125z" />
    <glyph glyph-name="uni2087" unicode="&#x2087;" horiz-adv-x="176" 
d="M12 0l70 418h-76v78h160v-65l-72 -431h-82z" />
    <glyph glyph-name="uni2088" unicode="&#x2088;" horiz-adv-x="225" 
d="M112 -7q-40 0 -68 24.5t-28 65.5v105q0 25 6.5 40.5t26.5 30.5q-33 23 -33 70v83q0 41 28 65.5t68 24.5q41 0 69 -24.5t28 -65.5v-83q0 -47 -33 -71q33 -24 33 -70v-105q0 -41 -28 -65.5t-69 -24.5zM101 83q0 -12 11 -12q12 0 12 12v122q0 14 -12 14q-11 0 -11 -14v-122z
M102 307q0 -14 10 -14q11 0 11 14v106q0 11 -11 11q-10 0 -10 -11v-106z" />
    <glyph glyph-name="uni2089" unicode="&#x2089;" horiz-adv-x="224" 
d="M112 502q41 0 68.5 -23t27.5 -57v-343q0 -37 -27.5 -61.5t-68.5 -24.5t-68.5 25t-27.5 63v64h86v-62q0 -11 10 -11t10 11v120q-15 -9 -30 -9q-32 0 -54 19.5t-22 57.5v151q0 34 27.5 57t68.5 23zM102 287q0 -11 10 -11t10 11v125q0 11 -10 11t-10 -11v-125z" />
    <glyph glyph-name="colonmonetary" unicode="&#x20a1;" horiz-adv-x="361" 
d="M174 760q20 0 40 -5l12 42l49 -12l-15 -54q11 -10 18 -19l18 65l49 -12l-44 -160v-162h-44l-34 -121h78v-212q0 -52 -35.5 -86t-91.5 -34q-19 0 -41 5l-10 -38l-49 12l14 49q-11 10 -18 19l-17 -60l-49 12l42 153v498q0 52 35.5 86t92.5 34zM158 275l46 168h-15v29
l-31 -113v-84zM158 550l28 101q-4 6 -12 6q-16 0 -16 -17v-90zM162 98q3 -5 12 -5q15 0 15 17v87z" />
    <glyph glyph-name="dong" unicode="&#x20ab;" horiz-adv-x="299" 
d="M93 142q-79 0 -79 114v181q0 123 71 123q32 0 45 -16t24 -52h3v100h-70v96h70v62h112v-62h16v-96h-16v-440h-91l-15 62h-3q-7 -26 -12 -38.5t-19 -23t-36 -10.5zM14 0v96h271v-96h-271zM126 297q0 -24 16 -24q15 0 15 27v102q0 27 -15 27q-16 0 -16 -24v-108z" />
    <glyph glyph-name="Euro" unicode="&#x20ac;" horiz-adv-x="289" 
d="M145 760q57 0 92.5 -34t35.5 -86v-98h-113v98q0 16 -15 16t-15 -16v-129h129v-109h-129v-30h129v-109h-129v-153q0 -16 15 -16t15 16v122h113v-122q0 -52 -35.5 -86t-92.5 -34t-92.5 34t-35.5 86v153h-16v109h16v30h-16v109h16v129q0 52 35.5 86t92.5 34z" />
    <glyph glyph-name="uni20B1" unicode="&#x20b1;" horiz-adv-x="356" 
d="M54 0v384h-49v90h49v80h-49v90h49v106h112q73 0 105 -24t40 -82h40v-90h-37v-80h37v-90h-44q-11 -48 -44 -69t-95 -21h-2v-294h-112zM166 398h8q27 0 27 40v158q0 50 -27 50h-8v-248z" />
    <glyph glyph-name="uni20B2" unicode="&#x20b2;" horiz-adv-x="296" 
d="M90 860h105v-108q36 -14 56.5 -43.5t20.5 -68.5v-157h-113v157q0 16 -15 16t-15 -16v-530q0 -16 15 -16t15 16v162h-16v105h145v-105h-16v-162q0 -39 -20.5 -68.5t-56.5 -43.5v-108h-105v110q-35 14 -54.5 43t-19.5 67v530q0 38 19.5 67t54.5 43v110z" />
    <glyph glyph-name="uni20BA" unicode="&#x20ba;" horiz-adv-x="325" 
d="M56 0v298l-52 -18v107l52 18v53l-52 -18v107l52 18v185h112v-146l72 25v-107l-72 -25v-53l72 25v-107l-72 -25v-233h15q15 0 15 17v171h112v-172q0 -52 -35.5 -86t-91.5 -34h-127z" />
    <glyph glyph-name="uni20BD" unicode="&#x20bd;" horiz-adv-x="332" 
d="M57 0v114h-54v104h54v76h-54v104h54v352h112q88 0 118 -36t30 -130v-125q0 -91 -32.5 -128t-113.5 -37h-2v-76h95v-104h-95v-114h-112zM169 398h8q27 0 27 40v158q0 50 -27 50h-8v-248z" />
    <glyph glyph-name="uni20BF" unicode="&#x20bf;" horiz-adv-x="292" 
d="M16 0v750h46v110h55v-110h33h2v110h55v-121q71 -31 71 -119v-127q0 -57 -33 -88q33 -31 33 -88v-187q0 -88 -71 -119v-121h-55v110h-2h-33v-110h-55v110h-46zM128 104h22q15 0 15 16v217q0 16 -15 16h-22v-249zM128 457h22q15 0 15 16v157q0 16 -15 16h-22v-189z" />
    <glyph glyph-name="uni2116" unicode="&#x2116;" horiz-adv-x="507" 
d="M16 0v750h89l81 -374v374h94v-750h-88l-82 379v-379h-94zM317 328v349q0 35 23 57.5t61 22.5q37 0 60.5 -22.5t23.5 -57.5v-349q0 -35 -23.5 -57.5t-60.5 -22.5q-38 0 -61 22.5t-23 57.5zM322 120v86h159v-86h-159zM390 328q0 -12 11 -12q10 0 10 12v349q0 12 -10 12
q-11 0 -11 -12v-349z" />
    <glyph glyph-name="uni2117" unicode="&#x2117;" horiz-adv-x="400" 
d="M200 -10q-81 0 -132.5 49.5t-51.5 120.5v430q0 72 51.5 121t132.5 49t132.5 -49t51.5 -121v-430q0 -71 -51.5 -120.5t-132.5 -49.5zM46 160q0 -62 41.5 -102.5t112.5 -40.5t112.5 40.5t41.5 102.5v430q0 64 -41.5 104.5t-112.5 40.5t-112.5 -40.5t-41.5 -104.5v-430z
M97 72v600h92q67 0 93 -27t26 -106v-101q0 -68 -23.5 -100t-92.5 -32h-3v-234h-92zM189 391h6q20 0 20 30v128q0 38 -20 38h-6v-196z" />
    <glyph glyph-name="trademark" unicode="&#x2122;" horiz-adv-x="468" 
d="M192 255v495h88l46 -240l44 240h88v-495h-78v178l-35 -178h-39l-36 178v-178h-78zM10 664v86h165v-86h-36v-409h-92v409h-37z" />
    <glyph glyph-name="estimated" unicode="&#x212e;" horiz-adv-x="898" 
d="M449 -14q-162 0 -264 91t-102 243q0 149 102.5 242t263.5 93q163 0 261 -90t105 -253h-582q-8 0 -11.5 -3t-3.5 -15v-164q0 -32 68.5 -75t162.5 -43q67 0 129 29.5t102 77.5h68q-65 -73 -131 -103t-168 -30zM218 339q0 -8 15 -8h430q10 0 13 3t3 12v162q0 39 -77 80.5
t-154 41.5q-88 0 -159 -44t-71 -72v-175z" />
    <glyph glyph-name="oneeighth" unicode="&#x215b;" horiz-adv-x="560" 
d="M8 254v76h44v344h-44v76h128v-420h38v-76h-166zM159 0l100 750h102l-100 -750h-102zM351 83v105q0 25 6.5 40.5t26.5 30.5q-33 23 -33 70v83q0 41 28 65.5t68 24.5q41 0 69 -24.5t28 -65.5v-83q0 -47 -33 -71q33 -24 33 -70v-105q0 -41 -28 -65.5t-69 -24.5
q-40 0 -68 24.5t-28 65.5zM436 83q0 -12 11 -12q12 0 12 12v122q0 14 -12 14q-11 0 -11 -14v-122zM437 307q0 -14 10 -14q11 0 11 14v106q0 11 -11 11q-10 0 -10 -11v-106z" />
    <glyph glyph-name="threeeighths" unicode="&#x215c;" horiz-adv-x="599" 
d="M102 247q-37 0 -63 27t-26 65v69h86v-68q0 -14 11 -14h3q11 0 11 14v122q0 4 -4 8t-10 4h-56v80h53q17 0 17 14v96q0 13 -13 13h-1q-13 0 -13 -13v-69h-86v68q0 41 26.5 67t68.5 26h8q42 0 69 -27t27 -67v-93q0 -33 -24 -55q24 -24 24 -54v-122q0 -38 -26 -64.5
t-64 -26.5h-18zM198 0l100 750h102l-100 -750h-102zM390 83v105q0 25 6.5 40.5t26.5 30.5q-33 23 -33 70v83q0 41 28 65.5t68 24.5q41 0 69 -24.5t28 -65.5v-83q0 -47 -33 -71q33 -24 33 -70v-105q0 -41 -28 -65.5t-69 -24.5q-40 0 -68 24.5t-28 65.5zM475 83q0 -12 11 -12
q12 0 12 12v122q0 14 -12 14q-11 0 -11 -14v-122zM476 307q0 -14 10 -14q11 0 11 14v106q0 11 -11 11q-10 0 -10 -11v-106z" />
    <glyph glyph-name="fiveeighths" unicode="&#x215d;" horiz-adv-x="587" 
d="M106 249q-37 0 -65.5 23t-28.5 55v80h85v-68q0 -11 9 -11q10 0 10 11v162q0 10 -10 10t-10 -10v-33h-83v51l8 231h166v-79h-93l-3 -98q13 10 31 10q33 0 56.5 -20.5t23.5 -56.5v-178q0 -33 -28.5 -56t-67.5 -23zM186 0l100 750h102l-100 -750h-102zM378 83v105
q0 25 6.5 40.5t26.5 30.5q-33 23 -33 70v83q0 41 28 65.5t68 24.5q41 0 69 -24.5t28 -65.5v-83q0 -47 -33 -71q33 -24 33 -70v-105q0 -41 -28 -65.5t-69 -24.5q-40 0 -68 24.5t-28 65.5zM463 83q0 -12 11 -12q12 0 12 12v122q0 14 -12 14q-11 0 -11 -14v-122zM464 307
q0 -14 10 -14q11 0 11 14v106q0 11 -11 11q-10 0 -10 -11v-106z" />
    <glyph glyph-name="seveneighths" unicode="&#x215e;" horiz-adv-x="555" 
d="M12 254l70 418h-76v78h160v-65l-72 -431h-82zM154 0l100 750h102l-100 -750h-102zM346 83v105q0 25 6.5 40.5t26.5 30.5q-33 23 -33 70v83q0 41 28 65.5t68 24.5q41 0 69 -24.5t28 -65.5v-83q0 -47 -33 -71q33 -24 33 -70v-105q0 -41 -28 -65.5t-69 -24.5q-40 0 -68 24.5
t-28 65.5zM431 83q0 -12 11 -12q12 0 12 12v122q0 14 -12 14q-11 0 -11 -14v-122zM432 307q0 -14 10 -14q11 0 11 14v106q0 11 -11 11q-10 0 -10 -11v-106z" />
    <glyph glyph-name="arrowleft" unicode="&#x2190;" horiz-adv-x="795" 
d="M780 306h-583l80 -81h-131l-131 133l131 133h131l-80 -81h583v-104z" />
    <glyph glyph-name="arrowup" unicode="&#x2191;" horiz-adv-x="302" 
d="M99 0v583l-81 -80v131l133 131l133 -131v-131l-81 80v-583h-104z" />
    <glyph glyph-name="arrowright" unicode="&#x2192;" horiz-adv-x="795" 
d="M15 410h583l-80 81h131l131 -133l-131 -133h-131l80 81h-583v104z" />
    <glyph glyph-name="arrowdown" unicode="&#x2193;" horiz-adv-x="302" 
d="M99 750h104v-583l81 80v-131l-133 -131l-133 131v131l81 -80v583z" />
    <glyph glyph-name="arrowboth" unicode="&#x2194;" horiz-adv-x="684" 
d="M146 225l-131 133l131 133h131l-80 -81h290l-80 81h131l131 -133l-131 -133h-131l80 81h-290l80 -81h-131z" />
    <glyph glyph-name="arrowupdn" unicode="&#x2195;" horiz-adv-x="302" 
d="M151 -15l-133 131v131l81 -80v416l-81 -80v131l133 131l133 -131v-131l-81 80v-416l81 80v-131z" />
    <glyph glyph-name="uni2196" unicode="&#x2196;" horiz-adv-x="601" 
d="M519 77l-412 412l-1 -114l-93 93l2 187l187 1l92 -93h-114l413 -412z" />
    <glyph glyph-name="uni2197" unicode="&#x2197;" horiz-adv-x="600" 
d="M8 147l412 412l-114 1l93 93l187 -2l1 -187l-93 -92v114l-412 -413z" />
    <glyph glyph-name="uni2198" unicode="&#x2198;" horiz-adv-x="600" 
d="M8 579l74 74l412 -413v114l93 -92l-1 -187l-187 -2l-93 93l114 1z" />
    <glyph glyph-name="uni2199" unicode="&#x2199;" horiz-adv-x="600" 
d="M592 579l-412 -412l114 -1l-93 -93l-187 2l-1 187l93 92v-114l412 413z" />
    <glyph glyph-name="partialdiff" unicode="&#x2202;" horiz-adv-x="283" 
d="M270 111q0 -58 -35 -89.5t-94 -31.5q-58 0 -93 32t-35 89v229q0 56 29.5 86t72.5 30q20 0 42 -16v170q0 22 -6.5 29t-29.5 7h-99v104h99q73 0 111 -39t38 -111v-489zM127 110q0 -16 15 -16t15 16v221q0 16 -15 16t-15 -16v-221z" />
    <glyph glyph-name="emptyset" unicode="&#x2205;" horiz-adv-x="500" 
d="M250 -8q-42 0 -76 15l-26 -77l-50 16l30 89q-78 63 -78 175v207q0 94 57 156.5t143 62.5q42 0 76 -15l26 77l50 -16l-30 -89q78 -63 78 -176v-207q0 -94 -57 -156t-143 -62zM113 210q0 -65 37 -110l156 462q-28 13 -56 13q-59 0 -98 -45t-39 -113v-207zM194 65
q28 -13 56 -13q59 0 98 45.5t39 112.5v207q0 66 -37 111z" />
    <glyph glyph-name="minus" unicode="&#x2212;" horiz-adv-x="262" 
d="M247 440v-104h-232v104h232z" />
    <glyph glyph-name="radical" unicode="&#x221a;" horiz-adv-x="375" 
d="M202 150h2l56 600h115l-96 -750h-149l-45 352h-70v101h169z" />
    <glyph glyph-name="infinity" unicode="&#x221e;" horiz-adv-x="502" 
d="M105 266q-41 0 -65.5 28t-24.5 68v2q0 40 24.5 67.5t65.5 27.5h83q40 0 63 -24q23 24 63 24h83q41 0 65.5 -27.5t24.5 -67.5v-2q0 -40 -24.5 -68t-65.5 -28h-83q-40 0 -63 24q-23 -24 -63 -24h-83zM103 362q0 -11 11 -11h96q14 0 14 11v2q0 10 -14 10h-96q-11 0 -11 -10
v-2zM278 362q0 -11 14 -11h96q11 0 11 11v2q0 10 -11 10h-96q-14 0 -14 -10v-2z" />
    <glyph glyph-name="integral" unicode="&#x222b;" horiz-adv-x="261" 
d="M7 0v104h52q15 0 15 16v510q0 52 35.5 86t92.5 34h52v-104h-52q-15 0 -15 -16v-510q0 -52 -35.5 -86t-92.5 -34h-52z" />
    <glyph glyph-name="approxequal" unicode="&#x2248;" horiz-adv-x="300" 
d="M198 390q-23 0 -51.5 22.5t-35.5 22.5q-20 0 -20 -37h-75q-9 149 86 149q23 0 51.5 -22.5t35.5 -22.5q20 0 20 37h75q9 -149 -86 -149zM16 198q-9 149 86 149q23 0 51.5 -22.5t35.5 -22.5q20 0 20 37h75q9 -149 -86 -149q-23 0 -51.5 22.5t-35.5 22.5q-20 0 -20 -37h-75z
" />
    <glyph glyph-name="notequal" unicode="&#x2260;" horiz-adv-x="262" 
d="M86 163l9 83h-80v104h91l7 76h-98v104h109l9 83h42l-9 -83h81v-104h-92l-7 -76h99v-104h-110l-9 -83h-42z" />
    <glyph glyph-name="lessequal" unicode="&#x2264;" horiz-adv-x="280" 
d="M20 190h240v-104h-240v104zM15 296v121l240 88v-109l-124 -40l124 -39v-110z" />
    <glyph glyph-name="greaterequal" unicode="&#x2265;" horiz-adv-x="280" 
d="M260 190v-104h-240v104h240zM25 207v109l124 40l-124 39v110l240 -89v-121z" />
    <glyph glyph-name="uni2460" unicode="&#x2460;" horiz-adv-x="598" 
d="M299 -10q-102 0 -170.5 74.5t-68.5 186.5v248q0 112 68.5 186.5t170.5 74.5t170.5 -74.5t68.5 -186.5v-248q0 -112 -68.5 -186.5t-170.5 -74.5zM135 251q0 -81 47 -135t117 -54t117 54t47 135v248q0 81 -47 135t-117 54t-117 -54t-47 -135v-248zM226 127v76h44v344h-44
v76h128v-420h38v-76h-166z" />
    <glyph glyph-name="uni2461" unicode="&#x2461;" horiz-adv-x="598" 
d="M299 -10q-102 0 -170.5 74.5t-68.5 186.5v248q0 112 68.5 186.5t170.5 74.5t170.5 -74.5t68.5 -186.5v-248q0 -112 -68.5 -186.5t-170.5 -74.5zM135 251q0 -81 47 -135t117 -54t117 54t47 135v248q0 81 -47 135t-117 54t-117 -54t-47 -135v-248zM204 465v79q0 35 27 58.5
t65 23.5q42 0 70 -23t28 -59v-99q0 -18 -3 -32t-10 -26t-12 -18t-16.5 -18t-15.5 -16q-19 -21 -23 -26t-12 -17t-9 -20t-1 -21v-50h102v-77h-189v147q0 14 3 27t6.5 22t11 19t11.5 14.5t13.5 14l12.5 12.5t12.5 12t13 13t9.5 12t8 16.5t2 19.5v87q0 9 -9 9t-9 -9v-75h-86z
" />
    <glyph glyph-name="uni2462" unicode="&#x2462;" horiz-adv-x="598" 
d="M299 -10q-102 0 -170.5 74.5t-68.5 186.5v248q0 112 68.5 186.5t170.5 74.5t170.5 -74.5t68.5 -186.5v-248q0 -112 -68.5 -186.5t-170.5 -74.5zM135 251q0 -81 47 -135t117 -54t117 54t47 135v248q0 81 -47 135t-117 54t-117 -54t-47 -135v-248zM200 469v68q0 41 26.5 67
t68.5 26h8q42 0 69 -27t27 -67v-93q0 -33 -24 -55q24 -24 24 -54v-122q0 -38 -26 -64.5t-64 -26.5h-18q-37 0 -63 27t-26 65v69h86v-68q0 -14 11 -14h3q11 0 11 14v122q0 4 -4 8t-10 4h-56v80h53q17 0 17 14v96q0 13 -13 13h-1q-13 0 -13 -13v-69h-86z" />
    <glyph glyph-name="uni2463" unicode="&#x2463;" horiz-adv-x="598" 
d="M299 -10q-102 0 -170.5 74.5t-68.5 186.5v248q0 112 68.5 186.5t170.5 74.5t170.5 -74.5t68.5 -186.5v-248q0 -112 -68.5 -186.5t-170.5 -74.5zM135 251q0 -81 47 -135t117 -54t117 54t47 135v248q0 81 -47 135t-117 54t-117 -54t-47 -135v-248zM196 220v71l37 331h85
l-34 -325h17v75h83v-75h22v-77h-22v-93h-83v93h-105z" />
    <glyph glyph-name="uni2464" unicode="&#x2464;" horiz-adv-x="598" 
d="M299 -10q-102 0 -170.5 74.5t-68.5 186.5v248q0 112 68.5 186.5t170.5 74.5t170.5 -74.5t68.5 -186.5v-248q0 -112 -68.5 -186.5t-170.5 -74.5zM135 251q0 -81 47 -135t117 -54t117 54t47 135v248q0 81 -47 135t-117 54t-117 -54t-47 -135v-248zM211 203v80h85v-68
q0 -11 9 -11q10 0 10 11v162q0 10 -10 10t-10 -10v-33h-83v51l8 231h166v-79h-93l-3 -98q13 10 31 10q33 0 56.5 -20.5t23.5 -56.5v-178q0 -33 -28.5 -56t-67.5 -23q-37 0 -65.5 23t-28.5 55z" />
    <glyph glyph-name="uni2465" unicode="&#x2465;" horiz-adv-x="598" 
d="M299 -10q-102 0 -170.5 74.5t-68.5 186.5v248q0 112 68.5 186.5t170.5 74.5t170.5 -74.5t68.5 -186.5v-248q0 -112 -68.5 -186.5t-170.5 -74.5zM135 251q0 -81 47 -135t117 -54t117 54t47 135v248q0 81 -47 135t-117 54t-117 -54t-47 -135v-248zM209 199v343
q0 37 27.5 61.5t68.5 24.5t68.5 -25t27.5 -63v-64h-86v62q0 11 -10 11t-10 -11v-120q15 9 30 9q32 0 54 -19.5t22 -57.5v-151q0 -34 -27.5 -57t-68.5 -23t-68.5 23t-27.5 57zM295 209q0 -11 10 -11t10 11v125q0 11 -10 11t-10 -11v-125z" />
    <glyph glyph-name="uni2466" unicode="&#x2466;" horiz-adv-x="598" 
d="M299 -10q-102 0 -170.5 74.5t-68.5 186.5v248q0 112 68.5 186.5t170.5 74.5t170.5 -74.5t68.5 -186.5v-248q0 -112 -68.5 -186.5t-170.5 -74.5zM135 251q0 -81 47 -135t117 -54t117 54t47 135v248q0 81 -47 135t-117 54t-117 -54t-47 -135v-248zM218 545v78h160v-65
l-72 -431h-82l70 418h-76z" />
    <glyph glyph-name="uni2467" unicode="&#x2467;" horiz-adv-x="598" 
d="M299 -10q-102 0 -170.5 74.5t-68.5 186.5v248q0 112 68.5 186.5t170.5 74.5t170.5 -74.5t68.5 -186.5v-248q0 -112 -68.5 -186.5t-170.5 -74.5zM135 251q0 -81 47 -135t117 -54t117 54t47 135v248q0 81 -47 135t-117 54t-117 -54t-47 -135v-248zM203 210v105q0 46 32 71
q-32 23 -32 70v83q0 41 28 65.5t68 24.5h1q40 0 68 -24.5t28 -65.5v-83q0 -46 -33 -71q33 -24 33 -70v-105q0 -41 -27.5 -65.5t-68.5 -24.5h-1q-40 0 -68 24.5t-28 65.5zM287 210q0 -12 11 -12h1q12 0 12 12v122q0 14 -12 14h-1q-11 0 -11 -14v-122zM288 434q0 -14 10 -14h1
q11 0 11 14v106q0 11 -11 11h-1q-10 0 -10 -11v-106z" />
    <glyph glyph-name="uni2468" unicode="&#x2468;" horiz-adv-x="598" 
d="M299 -10q-102 0 -170.5 74.5t-68.5 186.5v248q0 112 68.5 186.5t170.5 74.5t170.5 -74.5t68.5 -186.5v-248q0 -112 -68.5 -186.5t-170.5 -74.5zM135 251q0 -81 47 -135t117 -54t117 54t47 135v248q0 81 -47 135t-117 54t-117 -54t-47 -135v-248zM209 209v64h86v-62
q0 -11 10 -11t10 11v120q-15 -9 -30 -9q-32 0 -54 19.5t-22 57.5v151q0 34 27.5 57t68.5 23t68.5 -23t27.5 -57v-343q0 -37 -27.5 -61.5t-68.5 -24.5t-68.5 25t-27.5 63zM295 415q0 -11 10 -11t10 11v125q0 11 -10 11t-10 -11v-125z" />
    <glyph glyph-name="uni24EA" unicode="&#x24ea;" horiz-adv-x="598" 
d="M299 -10q-102 0 -170.5 74.5t-68.5 186.5v248q0 112 68.5 186.5t170.5 74.5t170.5 -74.5t68.5 -186.5v-248q0 -112 -68.5 -186.5t-170.5 -74.5zM135 251q0 -81 47 -135t117 -54t117 54t47 135v248q0 81 -47 135t-117 54t-117 -54t-47 -135v-248zM205 211v329
q0 41 25.5 65.5t68.5 24.5t68.5 -24.5t25.5 -65.5v-329q0 -41 -25.5 -65.5t-68.5 -24.5t-68.5 24.5t-25.5 65.5zM288 212q0 -12 11 -12q10 0 10 12v327q0 12 -10 12q-11 0 -11 -12v-327z" />
    <glyph glyph-name="uni24FF" unicode="&#x24ff;" horiz-adv-x="598" 
d="M299 -10q-102 0 -170.5 74.5t-68.5 186.5v248q0 112 68.5 186.5t170.5 74.5t170.5 -74.5t68.5 -186.5v-248q0 -112 -68.5 -186.5t-170.5 -74.5zM205 211q0 -41 25.5 -65.5t68.5 -24.5t68.5 24.5t25.5 65.5v329q0 41 -25.5 65.5t-68.5 24.5t-68.5 -24.5t-25.5 -65.5v-329z
M288 212v327q0 12 11 12q10 0 10 -12v-327q0 -12 -10 -12q-11 0 -11 12z" />
    <glyph glyph-name="lozenge" unicode="&#x25ca;" horiz-adv-x="288" 
d="M261 382l-47 -382h-141l-46 367l47 383h141zM124 391l20 -195l20 165l-19 194z" />
    <glyph glyph-name="uni2776" unicode="&#x2776;" horiz-adv-x="598" 
d="M299 -10q-102 0 -170.5 74.5t-68.5 186.5v248q0 112 68.5 186.5t170.5 74.5t170.5 -74.5t68.5 -186.5v-248q0 -112 -68.5 -186.5t-170.5 -74.5zM225 127h166v76h-38v420h-128v-76h44v-344h-44v-76z" />
    <glyph glyph-name="uni2777" unicode="&#x2777;" horiz-adv-x="598" 
d="M299 -10q-102 0 -170.5 74.5t-68.5 186.5v248q0 112 68.5 186.5t170.5 74.5t170.5 -74.5t68.5 -186.5v-248q0 -112 -68.5 -186.5t-170.5 -74.5zM214 465h86v75q0 9 9 9t9 -9v-87q0 -11 -2 -19.5t-8 -16.5t-9.5 -12t-13 -13t-12.5 -12l-12.5 -12.5t-13.5 -14t-11.5 -14.5
t-11 -19t-6.5 -22t-3 -27v-147h189v77h-102v50q0 17 5 30t11.5 20.5t28.5 33.5q4 4 15.5 16t16.5 18t12 18t10 26t3 32v99q0 36 -28 59t-70 23q-38 0 -65 -23.5t-27 -58.5v-79z" />
    <glyph glyph-name="uni2778" unicode="&#x2778;" horiz-adv-x="598" 
d="M299 -10q-102 0 -170.5 74.5t-68.5 186.5v248q0 112 68.5 186.5t170.5 74.5t170.5 -74.5t68.5 -186.5v-248q0 -112 -68.5 -186.5t-170.5 -74.5zM203 469h86v69q0 13 13 13h1q13 0 13 -13v-96q0 -14 -17 -14h-53v-80h56q6 0 10 -4t4 -8v-122q0 -14 -11 -14h-3
q-11 0 -11 14v68h-86v-69q0 -38 26 -65t63 -27h18q38 0 64 26.5t26 64.5v122q0 30 -24 54q24 22 24 55v93q0 40 -27 67t-69 27h-8q-42 0 -68.5 -26t-26.5 -67v-68z" />
    <glyph glyph-name="uni2779" unicode="&#x2779;" horiz-adv-x="598" 
d="M299 -10q-102 0 -170.5 74.5t-68.5 186.5v248q0 112 68.5 186.5t170.5 74.5t170.5 -74.5t68.5 -186.5v-248q0 -112 -68.5 -186.5t-170.5 -74.5zM195 220h105v-93h83v93h22v77h-22v75h-83v-75h-17l34 325h-85l-37 -331v-71z" />
    <glyph glyph-name="uni277A" unicode="&#x277a;" horiz-adv-x="598" 
d="M299 -10q-102 0 -170.5 74.5t-68.5 186.5v248q0 112 68.5 186.5t170.5 74.5t170.5 -74.5t68.5 -186.5v-248q0 -112 -68.5 -186.5t-170.5 -74.5zM211 203q0 -32 28.5 -55t65.5 -23q39 0 67.5 23t28.5 56v178q0 36 -23.5 56.5t-56.5 20.5q-18 0 -31 -10l3 98h93v79h-166
l-8 -231v-51h83v33q0 10 10 10t10 -10v-162q0 -11 -10 -11q-9 0 -9 11v68h-85v-80z" />
    <glyph glyph-name="uni277B" unicode="&#x277b;" horiz-adv-x="598" 
d="M299 -10q-102 0 -170.5 74.5t-68.5 186.5v248q0 112 68.5 186.5t170.5 74.5t170.5 -74.5t68.5 -186.5v-248q0 -112 -68.5 -186.5t-170.5 -74.5zM208 199q0 -34 27.5 -57t68.5 -23t68.5 23t27.5 57v151q0 38 -22 57.5t-54 19.5q-15 0 -30 -9v120q0 11 10 11t10 -11v-62h86
v64q0 38 -27.5 63t-68.5 25t-68.5 -24.5t-27.5 -61.5v-343zM294 209v125q0 11 10 11t10 -11v-125q0 -11 -10 -11t-10 11z" />
    <glyph glyph-name="uni277C" unicode="&#x277c;" horiz-adv-x="598" 
d="M299 -10q-102 0 -170.5 74.5t-68.5 186.5v248q0 112 68.5 186.5t170.5 74.5t170.5 -74.5t68.5 -186.5v-248q0 -112 -68.5 -186.5t-170.5 -74.5zM218 545h76l-70 -418h82l72 431v65h-160v-78z" />
    <glyph glyph-name="uni277D" unicode="&#x277d;" horiz-adv-x="598" 
d="M299 -10q-102 0 -170.5 74.5t-68.5 186.5v248q0 112 68.5 186.5t170.5 74.5t170.5 -74.5t68.5 -186.5v-248q0 -112 -68.5 -186.5t-170.5 -74.5zM203 210q0 -41 28 -65.5t68 -24.5h1q41 0 68.5 24.5t27.5 65.5v105q0 46 -33 70q33 25 33 71v83q0 41 -28 65.5t-68 24.5h-1
q-40 0 -68 -24.5t-28 -65.5v-83q0 -47 32 -70q-32 -25 -32 -71v-105zM287 210v122q0 14 11 14h1q12 0 12 -14v-122q0 -12 -12 -12h-1q-11 0 -11 12zM288 434v106q0 11 10 11h1q11 0 11 -11v-106q0 -14 -11 -14h-1q-10 0 -10 14z" />
    <glyph glyph-name="uni277E" unicode="&#x277e;" horiz-adv-x="598" 
d="M299 -10q-102 0 -170.5 74.5t-68.5 186.5v248q0 112 68.5 186.5t170.5 74.5t170.5 -74.5t68.5 -186.5v-248q0 -112 -68.5 -186.5t-170.5 -74.5zM208 210q0 -38 27.5 -63t68.5 -25t68.5 24.5t27.5 61.5v343q0 34 -27.5 57t-68.5 23t-68.5 -23t-27.5 -57v-151
q0 -38 22 -57.5t54 -19.5q15 0 30 9v-120q0 -11 -10 -11t-10 11v62h-86v-64zM294 416v125q0 11 10 11t10 -11v-125q0 -11 -10 -11t-10 11z" />
    <glyph glyph-name="uniA78B" unicode="&#xa78b;" horiz-adv-x="144" 
d="M16 242v510h112v-510h-112z" />
    <glyph glyph-name="uniA78C" unicode="&#xa78c;" horiz-adv-x="144" 
d="M16 242v510h112v-510h-112z" />
    <glyph glyph-name="uniF8FF" unicode="&#xf8ff;" horiz-adv-x="764" 
d="M546 717v-120h-246v-189q40 -14 95.5 -43.5t97.5 -53.5t96.5 -43t102.5 -19l47 4q-2 -4 -8 -9t-30.5 -14t-58.5 -9q-125 0 -342 113v-334h-126v386q-24 10 -52 10q-34 0 -56 -14.5t-22 -42.5q0 -19 10 -35t27 -22q-26 1 -41 18t-15 45q0 40 33.5 65t92.5 25q14 0 23 -2
v284h372z" />
    <glyph glyph-name="uni004A0301" 
d="M144 -8q-57 0 -92.5 34t-35.5 86v118h113v-118q0 -16 15 -16q14 0 14 16v638h113v-638q0 -52 -35.5 -86t-91.5 -34zM189 790l20 135h123l-106 -135h-37z" />
    <glyph glyph-name="Cacute.loclPLK" 
d="M144 -10q-57 0 -92.5 34t-35.5 86v530q0 52 35.5 86t92.5 34q56 0 91.5 -34t35.5 -86v-197h-112v197q0 17 -15 17q-16 0 -16 -17v-530q0 -17 16 -17q15 0 15 17v212h112v-212q0 -52 -35.5 -86t-91.5 -34zM118 790v135h123l-86 -135h-37z" />
    <glyph glyph-name="Nacute.loclPLK" horiz-adv-x="296" 
d="M16 0v750h89l81 -374v374h94v-750h-88l-82 379v-379h-94zM122 790v135h123l-86 -135h-37z" />
    <glyph glyph-name="Oacute.loclPLK" 
d="M144 -10q-57 0 -92.5 34t-35.5 86v530q0 52 35.5 86t92.5 34q56 0 91.5 -34t35.5 -86v-530q0 -52 -35.5 -86t-91.5 -34zM118 790v135h123l-86 -135h-37zM128 110q0 -17 16 -17q15 0 15 17v530q0 17 -15 17q-16 0 -16 -17v-530z" />
    <glyph glyph-name="Sacute.loclPLK" horiz-adv-x="271" 
d="M135 -10q-60 0 -90.5 35t-30.5 97v108h111v-125q0 -11 10 -11q11 0 11 11v123q0 38 -7 55.5t-43 59.5q-47 56 -64 95.5t-17 84.5v108q0 59 33 94t89 35q54 0 86 -34.5t32 -94.5v-111h-112v128q0 8 -8 8t-8 -8v-110q0 -34 10 -53t44 -59q36 -42 53 -75t20 -53.5t3 -57.5
v-117q0 -63 -31 -98t-91 -35zM110 790v135h123l-86 -135h-37z" />
    <glyph glyph-name="Zacute.loclPLK" horiz-adv-x="232" 
d="M7 0v93l104 552h-104v105h218v-96l-104 -549h104v-105h-218zM90 790v135h123l-86 -135h-37z" />
    <glyph glyph-name="Aacute.ss01" horiz-adv-x="279" 
d="M0 0l67 750h28v-62h62l46 62h9l67 -750h-115l-5 116h-43l-6 -116h-110zM108 699v135h137l-96 -135h-41zM120 208h35l-16 379z" />
    <glyph glyph-name="Abreve.ss01" horiz-adv-x="279" 
d="M62 702q33 -14 76 -14q46 0 78 15l63 -703h-115l-5 116h-44l-5 -116h-110zM12 833h88q-5 -51 40 -51q44 0 39 51h84q15 -133 -125 -133q-68 0 -100.5 33.5t-25.5 99.5zM120 208h35l-16 380z" />
    <glyph glyph-name="Acircumflex.ss01" horiz-adv-x="278" 
d="M0 0l62 688h46l31 44l31 -44h46l62 -688h-114l-5 116h-43l-6 -116h-110zM40 700l57 135h82l57 -135h-59l-38 53l-38 -53h-61zM120 208h35l-16 383z" />
    <glyph glyph-name="Adieresis.ss01" horiz-adv-x="280" 
d="M62 690q25 -6 47 3t30 31h2q8 -22 30 -31t47 -3l62 -690h-116l-5 116h-43l-6 -116h-110zM29 752q0 23 14.5 37.5t37.5 14.5q24 0 38.5 -14.5t14.5 -37.5t-14.5 -37.5t-38.5 -14.5q-23 0 -37.5 14.5t-14.5 37.5zM120 208h35l-17 381zM146 752q0 23 14.5 37.5t37.5 14.5
q24 0 38.5 -14.5t14.5 -37.5t-14.5 -37.5t-38.5 -14.5q-23 0 -37.5 14.5t-14.5 37.5z" />
    <glyph glyph-name="Agrave.ss01" horiz-adv-x="279" 
d="M0 0l67 750h15l47 -62h62v62h21l67 -750h-115l-5 116h-43l-6 -116h-110zM41 834h137v-135h-41zM120 208h35l-16 384z" />
    <glyph glyph-name="Amacron.ss01" horiz-adv-x="279" 
d="M0 0l61 688h157l61 -688h-115l-5 116h-43l-6 -116h-110zM22 700v110h232v-110h-232zM120 208h35l-16 381z" />
    <glyph glyph-name="Aring.ss01" horiz-adv-x="279" 
d="M62 697q31 -28 77 -28q49 0 77 30l63 -699h-115l-5 116h-43l-6 -116h-110zM44 772q0 39 26 65t69 26t69 -26t26 -65t-26 -65t-69 -26t-69 26t-26 65zM110 772q0 -12 8 -20.5t21 -8.5t21 8.5t8 20.5t-8 20.5t-21 8.5t-21 -8.5t-8 -20.5zM120 208h35l-16 378z" />
    <glyph glyph-name="Atilde.ss01" horiz-adv-x="275" 
d="M-2 0l62 698h25l3 33h7q4 0 20.5 -11.5t43 -21t56.5 -6.5l62 -692h-115l-5 116h-43l-6 -116h-110zM-9 711q-5 68 16.5 98.5t69.5 30.5q36 0 71 -20.5t38 -20.5q16 0 16 33h85q5 -68 -16.5 -98.5t-69.5 -30.5q-35 0 -69 20.5t-40 20.5q-16 0 -16 -33h-85zM118 208h35
l-16 380z" />
    <glyph glyph-name="Cacute.ss01" horiz-adv-x="288" 
d="M144 -10q-57 0 -92.5 34t-35.5 86v530q0 42 24 73t64 41v-66h57l41 60q70 -30 70 -108v-197h-113v197q0 16 -15 16t-15 -16v-530q0 -16 15 -16t15 16v212h113v-212q0 -52 -35.5 -86t-92.5 -34zM117 700v135h123l-86 -135h-37z" />
    <glyph glyph-name="Ccaron.ss01" horiz-adv-x="288" 
d="M144 -10q-57 0 -92.5 34t-35.5 86v530q0 69 55 101l23 -53h97l25 55q56 -33 56 -103v-197h-113v197q0 16 -15 16t-15 -16v-530q0 -16 15 -16t15 16v212h113v-212q0 -52 -35.5 -86t-92.5 -34zM45 835h60l38 -51l38 51h60l-57 -135h-82z" />
    <glyph glyph-name="Dcaron.ss01" horiz-adv-x="286" 
d="M16 0v750h46l28 -62h100l20 46q60 -32 60 -104v-510q0 -52 -35.5 -86t-92.5 -34h-126zM42 835h60l38 -51l38 51h60l-57 -135h-82zM128 104h14q15 0 15 16v510q0 16 -15 16h-14v-542z" />
    <glyph glyph-name="Eacute.ss01" horiz-adv-x="232" 
d="M16 0v750h52v-62h61l47 62h33v-104h-81v-204h65v-104h-65v-234h90v-104h-202zM81 699v135h137l-96 -135h-41z" />
    <glyph glyph-name="Ecaron.ss01" horiz-adv-x="233" 
d="M17 0v750h24l25 -62h96l25 62h23v-104h-81v-204h65v-104h-65v-234h90v-104h-202zM16 835h60l38 -51l38 51h60l-57 -135h-82z" />
    <glyph glyph-name="Ecircumflex.ss01" horiz-adv-x="237" 
d="M21 0v688h59l35 45l32 -45h67v-42h-81v-204h65v-104h-65v-234h90v-104h-202zM16 700l57 135h82l57 -135h-60l-38 51l-38 -51h-60z" />
    <glyph glyph-name="Edieresis.ss01" horiz-adv-x="231" 
d="M16 0v699q16 -11 37 -11q46 0 59 40q13 -40 59 -40q22 0 38 11v-53h-81v-204h65v-104h-65v-234h90v-104h-202zM2 751q0 23 14.5 37.5t37.5 14.5t38 -14.5t15 -37.5t-15 -37.5t-38 -14.5t-37.5 14.5t-14.5 37.5zM119 751q0 23 14.5 37.5t37.5 14.5t38 -14.5t15 -37.5
t-15 -37.5t-38 -14.5t-37.5 14.5t-14.5 37.5z" />
    <glyph glyph-name="Edotaccent.ss01" horiz-adv-x="232" 
d="M16 0v750h31q1 -27 19.5 -44.5t46.5 -17.5t46.5 17.5t19.5 44.5h30v-104h-81v-204h65v-104h-65v-234h90v-104h-202zM58 754q0 23 15.5 38t38.5 15q24 0 39.5 -15t15.5 -38q0 -24 -15.5 -39t-39.5 -15q-23 0 -38.5 15t-15.5 39z" />
    <glyph glyph-name="Egrave.ss01" horiz-adv-x="232" 
d="M16 0v750h34l47 -62h63v62h49v-104h-81v-204h65v-104h-65v-234h90v-104h-202zM9 834h138v-135h-42z" />
    <glyph glyph-name="Emacron.ss01" horiz-adv-x="232" 
d="M16 0v750h20v-62h153v62h20v-104h-81v-204h65v-104h-65v-234h90v-104h-202zM46 699v110h133v-110h-133z" />
    <glyph glyph-name="Gbreve.ss01" horiz-adv-x="296" 
d="M144 -10q-57 0 -92.5 34t-35.5 86v530q0 45 27 77q35 -29 102 -29q65 0 100 29q27 -33 27 -77v-157h-113v157q0 16 -15 16t-15 -16v-530q0 -16 15 -16t15 16v162h-16v105h145v-105h-16v-162q0 -52 -35.5 -86t-92.5 -34zM19 833h88q-5 -51 40 -51q44 0 39 51h84
q15 -133 -125 -133q-68 0 -100.5 33.5t-25.5 99.5z" />
    <glyph glyph-name="Iacute.ss01" horiz-adv-x="144" 
d="M16 0v750h18v-62h61l33 44v-732h-112zM47 700v135h137l-96 -135h-41z" />
    <glyph glyph-name="Icircumflex.ss01" horiz-adv-x="144" 
d="M16 0v687h20l36 49l36 -49h20v-687h-112zM-26 699l57 135h82l57 -135h-60l-38 52l-38 -52h-60z" />
    <glyph glyph-name="Idieresis.ss01" horiz-adv-x="144" 
d="M16 688q44 7 56 44q12 -37 56 -44v-688h-112v688zM-50 759q0 25 16 40.5t41 15.5t41 -15.5t16 -40.5t-16 -41t-41 -16t-41 16t-16 41zM80 759q0 25 16 40.5t41 15.5t41 -15.5t16 -40.5t-16 -41t-41 -16t-41 16t-16 41z" />
    <glyph glyph-name="Idotaccent.ss01" horiz-adv-x="144" 
d="M16 717q19 -29 56 -29t56 29v-717h-112v717zM15 754q0 25 16 40.5t41 15.5t41 -15.5t16 -40.5t-16 -41t-41 -16t-41 16t-16 41z" />
    <glyph glyph-name="Igrave.ss01" horiz-adv-x="144" 
d="M16 0v732l33 -44h61v62h18v-750h-112zM-40 835h137v-135h-41z" />
    <glyph glyph-name="Imacron.ss01" horiz-adv-x="144" 
d="M16 0v688h112v-688h-112zM-44 699v110h232v-110h-232z" />
    <glyph glyph-name="Lacute.ss01" horiz-adv-x="224" 
d="M16 0v750h7v-62h61l44 58v-642h87v-104h-199zM36 700v135h137l-96 -135h-41z" />
    <glyph glyph-name="Nacute.ss01" horiz-adv-x="296" 
d="M16 0v750h89l81 -374v331l31 43h63v-750h-88l-82 379v-379h-94zM125 700v135h137l-96 -135h-41z" />
    <glyph glyph-name="Ncaron.ss01" horiz-adv-x="296" 
d="M16 0v750h57l28 -65h19l66 -299v299h15l28 65h51v-750h-88l-82 369v-369h-94zM53 834h60l38 -51l38 51h60l-57 -135h-82z" />
    <glyph glyph-name="Oacute.ss01" horiz-adv-x="288" 
d="M144 -10q-57 0 -92.5 34t-35.5 86v530q0 43 24.5 74t66.5 42v-68h61l43 57q61 -34 61 -105v-530q0 -52 -35.5 -86t-92.5 -34zM120 700v135h137l-96 -135h-41zM129 110q0 -16 15 -16t15 16v530q0 16 -15 16t-15 -16v-530z" />
    <glyph glyph-name="Ocircumflex.ss01" horiz-adv-x="288" 
d="M144 -10q-57 0 -92.5 34t-35.5 86v530q0 26 9 47h83l36 49l35 -49h84q9 -23 9 -47v-530q0 -52 -35.5 -86t-92.5 -34zM46 699l57 135h82l57 -135h-60l-38 51l-38 -51h-60zM129 110q0 -16 15 -16t15 16v530q0 16 -15 16t-15 -16v-530z" />
    <glyph glyph-name="Odieresis.ss01" horiz-adv-x="288" 
d="M144 -10q-57 0 -92.5 34t-35.5 86v530q0 41 20 69q19 -21 49 -21q21 0 37 11t22 29q6 -18 22 -29t37 -11q30 0 49 21q20 -28 20 -69v-530q0 -52 -35.5 -86t-92.5 -34zM33 752q0 23 14.5 37.5t37.5 14.5t37.5 -14.5t14.5 -37.5t-14.5 -37.5t-37.5 -14.5t-37.5 14.5
t-14.5 37.5zM129 110q0 -16 15 -16t15 16v530q0 16 -15 16t-15 -16v-530zM151 752q0 23 14.5 37.5t37.5 14.5t37.5 -14.5t14.5 -37.5t-14.5 -37.5t-37.5 -14.5t-37.5 14.5t-14.5 37.5z" />
    <glyph glyph-name="Ograve.ss01" horiz-adv-x="288" 
d="M144 -10q-57 0 -92.5 34t-35.5 86v530q0 72 61 104l43 -56h61v68q42 -10 66.5 -41.5t24.5 -74.5v-530q0 -52 -35.5 -86t-92.5 -34zM31 835h137v-135h-41zM129 110q0 -16 15 -16t15 16v530q0 16 -15 16t-15 -16v-530z" />
    <glyph glyph-name="Ohungarumlaut.ss01" horiz-adv-x="315" 
d="M144 -10q-57 0 -92.5 34t-35.5 86v530q0 26 9 48h73l54 72h12v-72h56l22 33q30 -33 30 -81v-530q0 -52 -35.5 -86t-92.5 -34zM51 700v135h123l-86 -135h-37zM129 110q0 -16 15 -16t15 16v530q0 16 -15 16t-15 -16v-530zM176 700v135h123l-86 -135h-37z" />
    <glyph glyph-name="Omacron.ss01" horiz-adv-x="288" 
d="M144 -10q-57 0 -92.5 34t-35.5 86v530q0 25 9 48h238q9 -22 9 -48v-530q0 -52 -35.5 -86t-92.5 -34zM28 699v110h232v-110h-232zM129 110q0 -16 15 -16t15 16v530q0 16 -15 16t-15 -16v-530z" />
    <glyph glyph-name="Otilde.ss01" horiz-adv-x="292" 
d="M144 -10q-57 0 -92.5 34t-35.5 86v530q0 27 10 48h67q-4 32 9 32q2 0 36 -20t70 -20q30 0 53 12q11 -24 11 -52v-530q0 -52 -35.5 -86t-92.5 -34zM-2 700q-5 68 16.5 98.5t69.5 30.5q36 0 71 -20.5t38 -20.5q16 0 16 33h85q5 -68 -16.5 -98.5t-69.5 -30.5q-35 0 -69 20.5
t-40 20.5q-16 0 -16 -33h-85zM129 110q0 -16 15 -16t15 16v530q0 16 -15 16t-15 -16v-530z" />
    <glyph glyph-name="Q.ss01" horiz-adv-x="307" 
d="M144 0q-57 0 -92.5 34t-35.5 86v520q0 52 35.5 86t92.5 34q56 0 91.5 -34t35.5 -86v-487q0 -38 -21 -51h49v-102h-155zM128 120q0 -17 16 -17q15 0 15 17v520q0 17 -15 17q-16 0 -16 -17v-520z" />
    <glyph glyph-name="Racute.ss01" horiz-adv-x="294" 
d="M16 0v750h78v-62h61l39 52q80 -28 80 -131v-174q0 -62 -31 -99l51 -336h-117l-38 293h-11v-293h-112zM107 700v135h137l-96 -135h-41zM128 397h8q16 0 20.5 7.5t4.5 32.5v170q0 24 -4.5 31.5t-20.5 7.5h-8v-249z" />
    <glyph glyph-name="Rcaron.ss01" horiz-adv-x="294" 
d="M16 0v750h41l26 -62h101l20 48q70 -32 70 -127v-174q0 -60 -31 -99l51 -336h-117l-38 293h-11v-293h-112zM36 834h60l38 -51l38 51h60l-57 -135h-82zM128 397h8q16 0 20.5 7.5t4.5 32.5v170q0 24 -4.5 31.5t-20.5 7.5h-8v-249z" />
    <glyph glyph-name="Sacute.ss01" horiz-adv-x="271" 
d="M135 -10q-60 0 -90.5 35t-30.5 97v108h111v-125q0 -11 10 -11q11 0 11 11v123q0 38 -7 55.5t-43 59.5q-47 56 -64 95.5t-17 84.5v108q0 49 22.5 81.5t62.5 42.5v-67h61l41 55q53 -31 53 -112v-111h-112v128q0 8 -8 8t-8 -8v-110q0 -34 10 -53t44 -59q36 -42 53 -75
t20 -53.5t3 -57.5v-117q0 -63 -31 -98t-91 -35zM113 700v135h137l-96 -135h-41z" />
    <glyph glyph-name="Scaron.ss01" horiz-adv-x="271" 
d="M135 -10q-60 0 -90.5 35t-30.5 97v108h111v-125q0 -11 10 -11q11 0 11 11v123q0 38 -7 55.5t-43 59.5q-47 56 -64 95.5t-17 84.5v108q0 74 48 108l22 -52h106l20 49q44 -33 44 -105v-111h-112v128q0 8 -8 8t-8 -8v-110q0 -34 10 -53t44 -59q36 -42 53 -75t20 -53.5
t3 -57.5v-117q0 -63 -31 -98t-91 -35zM40 834h60l38 -51l38 51h60l-57 -135h-82z" />
    <glyph glyph-name="Tcaron.ss01" horiz-adv-x="246" 
d="M67 0v646h-60v104h38l27 -62h102l27 62h38v-104h-60v-646h-112zM25 835h60l38 -51l38 51h60l-57 -135h-82z" />
    <glyph glyph-name="Uacute.ss01" 
d="M144 -8q-57 0 -92.5 34t-35.5 86v638h94v-62h19v-576q0 -16 15 -16q14 0 14 16v576h12l45 62h56v-638q0 -52 -35.5 -86t-91.5 -34zM122 700v135h137l-96 -135h-41z" />
    <glyph glyph-name="Ucircumflex.ss01" 
d="M144 -8q-57 0 -92.5 34t-35.5 86v638h35l-27 -64h105v-574q0 -16 15 -16q14 0 14 16v574h107l-27 64h33v-638q0 -52 -35.5 -86t-91.5 -34zM46 699l57 135h82l57 -135h-60l-38 51l-38 -51h-60z" />
    <glyph glyph-name="Udieresis.ss01" 
d="M144 -8q-57 0 -92.5 34t-35.5 86v638h8q-1 -38 33.5 -52t71.5 8v-594q0 -16 15 -16q14 0 14 16v592q41 -21 72 -7t30 53h11v-638q0 -52 -35.5 -86t-91.5 -34zM32 753q0 23 14.5 37.5t37.5 14.5q24 0 38.5 -14.5t14.5 -37.5t-14.5 -37.5t-38.5 -14.5q-23 0 -37.5 14.5
t-14.5 37.5zM148 753q0 23 14.5 37.5t37.5 14.5q24 0 38.5 -14.5t14.5 -37.5t-14.5 -37.5t-38.5 -14.5q-23 0 -37.5 14.5t-14.5 37.5z" />
    <glyph glyph-name="Ugrave.ss01" 
d="M144 -8q-57 0 -92.5 34t-35.5 86v638h56l45 -62h12v-576q0 -16 15 -16q14 0 14 16v576h19v62h94v-638q0 -52 -35.5 -86t-91.5 -34zM28 835h137v-135h-41z" />
    <glyph glyph-name="Uhungarumlaut.ss01" 
d="M144 -8q-57 0 -92.5 34t-35.5 86v638h22v-62h91v-576q0 -16 15 -16q14 0 14 16v576h66l40 62h7v-638q0 -52 -35.5 -86t-91.5 -34zM51 700v135h123l-86 -135h-37zM176 700v135h123l-86 -135h-37z" />
    <glyph glyph-name="Umacron.ss01" 
d="M144 -8q-57 0 -92.5 34t-35.5 86v638h35v-62h78v-576q0 -16 15 -16q14 0 14 16v576h77v62h36v-638q0 -52 -35.5 -86t-91.5 -34zM61 700v110h164v-110h-164z" />
    <glyph glyph-name="Uring.ss01" 
d="M144 -8q-57 0 -92.5 34t-35.5 86v638h27q10 -25 33.5 -43.5t52.5 -21.5v-573q0 -16 15 -16q14 0 14 16v573q29 3 54 21.5t35 43.5h24v-638q0 -52 -35.5 -86t-91.5 -34zM50 791q0 39 26 65t69 26t69 -26t26 -65t-26 -65t-69 -26t-69 26t-26 65zM116 791q0 -12 8 -20.5
t21 -8.5t21 8.5t8 20.5t-8 20.5t-21 8.5t-21 -8.5t-8 -20.5z" />
    <glyph glyph-name="Yacute.ss01" horiz-adv-x="269" 
d="M78 0v240l-80 510h94v-64h24l20 -253l21 258l42 59h72l-81 -511v-239h-112zM106 700v135h137l-96 -135h-41z" />
    <glyph glyph-name="Ydieresis.ss01" horiz-adv-x="269" 
d="M78 0v240l-80 510h14q-2 -39 29.5 -55.5t72.5 7.5l22 -259l20 255q46 -19 75 -2.5t27 54.5h13l-81 -511v-239h-112zM24 752q0 23 14.5 37.5t37.5 14.5q24 0 38.5 -14.5t14.5 -37.5t-14.5 -37.5t-38.5 -14.5q-23 0 -37.5 14.5t-14.5 37.5zM141 752q0 23 14.5 37.5
t37.5 14.5q24 0 38.5 -14.5t14.5 -37.5t-14.5 -37.5t-38.5 -14.5q-23 0 -37.5 14.5t-14.5 37.5z" />
    <glyph glyph-name="Zacute.ss01" horiz-adv-x="232" 
d="M7 0v93l104 552h-104v105h55v-62h61l47 62h55v-96l-104 -549h104v-105h-218zM75 700v135h137l-96 -135h-41z" />
    <glyph glyph-name="Zcaron.ss01" horiz-adv-x="232" 
d="M7 0v93l104 552h-104v105h30l26 -63h106l26 63h30v-96l-104 -549h104v-105h-218zM18 834h60l38 -51l38 51h60l-57 -135h-82z" />
    <glyph glyph-name="Zdotaccent.ss01" horiz-adv-x="232" 
d="M7 0v93l104 552h-104v105h42q1 -28 20 -45.5t47 -17.5t47 17.5t20 45.5h42v-96l-104 -549h104v-105h-218zM59 754q0 25 16 40.5t41 15.5t41 -15.5t16 -40.5q0 -26 -15.5 -41.5t-41.5 -15.5q-25 0 -41 16t-16 41z" />
    <glyph glyph-name="Aacute.ss03" horiz-adv-x="288" 
d="M16 640q0 43 24.5 74t66.5 42v-68h61l43 57q61 -34 61 -105v-640h-113v227h-30v-227h-113v640zM120 700v135h137l-96 -135h-41zM129 320h30v320q0 16 -15 16t-15 -16v-320z" />
    <glyph glyph-name="Abreve.ss03" 
d="M16 638q0 46 28 79q37 -29 101 -29q65 0 99 27q27 -33 27 -77v-638h-113v227h-29v-227h-113v638zM19 833h88q-5 -51 40 -51q44 0 39 51h84q15 -133 -125 -133q-68 0 -100.5 33.5t-25.5 99.5zM129 320h29v318q0 16 -15 16q-14 0 -14 -16v-318z" />
    <glyph glyph-name="Acircumflex.ss03" horiz-adv-x="288" 
d="M16 640q0 26 9 47h83l36 49l35 -49h84q9 -23 9 -47v-640h-113v227h-30v-227h-113v640zM46 699l57 135h82l57 -135h-60l-38 51l-38 -51h-60zM129 320h30v320q0 16 -15 16t-15 -16v-320z" />
    <glyph glyph-name="Adieresis.ss03" horiz-adv-x="288" 
d="M16 640q0 40 20 69q19 -21 50 -21q44 0 58 36q14 -36 58 -36q31 0 50 21q20 -28 20 -69v-640h-113v227h-30v-227h-113v640zM34 752q0 23 14.5 37.5t37.5 14.5t37.5 -14.5t14.5 -37.5t-14.5 -37.5t-37.5 -14.5t-37.5 14.5t-14.5 37.5zM129 320h30v320q0 16 -15 16t-15 -16
v-320zM150 752q0 23 14.5 37.5t37.5 14.5t37.5 -14.5t14.5 -37.5t-14.5 -37.5t-37.5 -14.5t-37.5 14.5t-14.5 37.5z" />
    <glyph glyph-name="Agrave.ss03" horiz-adv-x="288" 
d="M16 640q0 72 61 104l43 -56h61v68q42 -10 66.5 -41.5t24.5 -74.5v-640h-113v227h-30v-227h-113v640zM31 835h137v-135h-41zM129 320h30v320q0 16 -15 16t-15 -16v-320z" />
    <glyph glyph-name="Amacron.ss03" horiz-adv-x="288" 
d="M16 640q0 25 9 48h238q9 -22 9 -48v-640h-113v227h-30v-227h-113v640zM28 699v110h232v-110h-232zM129 320h30v320q0 16 -15 16t-15 -16v-320z" />
    <glyph glyph-name="Aring.ss03" 
d="M16 618q0 56 41 92q30 -41 87 -41q59 0 86 40q41 -35 41 -91v-618h-113v227h-29v-227h-113v618zM49 772q0 39 26 65t69 26t69 -26t26 -65t-26 -65t-69 -26t-69 26t-26 65zM115 772q0 -12 8 -20.5t21 -8.5t21 8.5t8 20.5t-8 20.5t-21 8.5t-21 -8.5t-8 -20.5zM129 320h29
v298q0 16 -15 16q-14 0 -14 -16v-298z" />
    <glyph glyph-name="Atilde.ss03" horiz-adv-x="292" 
d="M16 640q0 27 10 48h67q-4 32 9 32q2 0 36 -20t70 -20q30 0 53 12q11 -24 11 -52v-640h-113v227h-30v-227h-113v640zM-2 700q-5 68 16.5 98.5t69.5 30.5q36 0 71 -20.5t38 -20.5q16 0 16 33h85q5 -68 -16.5 -98.5t-69.5 -30.5q-35 0 -69 20.5t-40 20.5q-16 0 -16 -33h-85z
M129 320h30v320q0 16 -15 16t-15 -16v-320z" />
    <glyph glyph-name="C.ss04" horiz-adv-x="773" 
d="M389 -10q-164 0 -274.5 109.5t-110.5 275.5t110.5 275.5t274.5 109.5q148 0 254 -90.5t127 -233.5h-114q-18 100 -90 160t-177 60q-121 0 -196.5 -78t-75.5 -203t75.5 -203t196.5 -78q105 0 177 59.5t90 159.5h114q-21 -143 -127 -233t-254 -90z" />
    <glyph glyph-name="Cacute.ss04" horiz-adv-x="773" 
d="M389 -10q-164 0 -274.5 109.5t-110.5 275.5t110.5 275.5t274.5 109.5q148 0 254 -90.5t127 -233.5h-114q-18 100 -90 160t-177 60q-121 0 -196.5 -78t-75.5 -203t75.5 -203t196.5 -78q105 0 177 59.5t90 159.5h114q-21 -143 -127 -233t-254 -90zM361 790l20 135h123
l-106 -135h-37z" />
    <glyph glyph-name="Ccaron.ss04" horiz-adv-x="773" 
d="M389 -10q-164 0 -274.5 109.5t-110.5 275.5t110.5 275.5t274.5 109.5q148 0 254 -90.5t127 -233.5h-114q-18 100 -90 160t-177 60q-121 0 -196.5 -78t-75.5 -203t75.5 -203t196.5 -78q105 0 177 59.5t90 159.5h114q-21 -143 -127 -233t-254 -90zM289 925h60l38 -51l38 51
h60l-57 -135h-82z" />
    <glyph glyph-name="Ccedilla.ss04" horiz-adv-x="773" 
d="M389 -10q-164 0 -274.5 109.5t-110.5 275.5t110.5 275.5t274.5 109.5q148 0 254 -90.5t127 -233.5h-114q-18 100 -90 160t-177 60q-121 0 -196.5 -78t-75.5 -203t75.5 -203t196.5 -78q105 0 177 59.5t90 159.5h114q-21 -143 -127 -233t-254 -90zM270 -175l106 135h37
l-20 -135h-123z" />
    <glyph glyph-name="Ccircumflex.ss04" horiz-adv-x="773" 
d="M389 -10q-164 0 -274.5 109.5t-110.5 275.5t110.5 275.5t274.5 109.5q148 0 254 -90.5t127 -233.5h-114q-18 100 -90 160t-177 60q-121 0 -196.5 -78t-75.5 -203t75.5 -203t196.5 -78q105 0 177 59.5t90 159.5h114q-21 -143 -127 -233t-254 -90zM289 790l57 135h82
l57 -135h-60l-38 51l-38 -51h-60z" />
    <glyph glyph-name="Cdotaccent.ss04" horiz-adv-x="773" 
d="M389 -10q-164 0 -274.5 109.5t-110.5 275.5t110.5 275.5t274.5 109.5q148 0 254 -90.5t127 -233.5h-114q-18 100 -90 160t-177 60q-121 0 -196.5 -78t-75.5 -203t75.5 -203t196.5 -78q105 0 177 59.5t90 159.5h114q-21 -143 -127 -233t-254 -90zM320 886q0 29 19 48
t48 19t48 -19t19 -48t-18.5 -48t-48.5 -19q-29 0 -48 19.5t-19 47.5z" />
    <glyph glyph-name="D.ss04" horiz-adv-x="682" 
d="M296 0h-280v750h280q163 0 272.5 -107t109.5 -268t-109.5 -268t-272.5 -107zM128 104h168q115 0 192 77.5t77 193.5t-77 193.5t-192 77.5h-168v-542z" />
    <glyph glyph-name="Eth.ss04" horiz-adv-x="702" 
d="M316 0h-280v327h-36v96h36v327h280q163 0 272.5 -107t109.5 -268t-109.5 -268t-272.5 -107zM148 104h168q115 0 192 77.5t77 193.5t-77 193.5t-192 77.5h-168v-223h102v-96h-102v-223z" />
    <glyph glyph-name="Dcaron.ss04" horiz-adv-x="682" 
d="M296 0h-280v750h280q163 0 272.5 -107t109.5 -268t-109.5 -268t-272.5 -107zM128 104h168q115 0 192 77.5t77 193.5t-77 193.5t-192 77.5h-168v-542zM196 925h60l38 -51l38 51h60l-57 -135h-82z" />
    <glyph glyph-name="Dcroat.ss04" horiz-adv-x="702" 
d="M316 0h-280v327h-36v96h36v327h280q163 0 272.5 -107t109.5 -268t-109.5 -268t-272.5 -107zM148 104h168q115 0 192 77.5t77 193.5t-77 193.5t-192 77.5h-168v-223h102v-96h-102v-223z" />
    <glyph glyph-name="G.ss04" horiz-adv-x="813" 
d="M389 -10q-164 0 -274.5 109.5t-110.5 275.5t110.5 275.5t274.5 109.5q139 0 242.5 -81t133.5 -213h-116q-25 88 -94 139t-166 51q-121 0 -196.5 -78t-75.5 -203t75.5 -203t196.5 -78q91 0 157.5 44.5t95.5 123.5h-178v93h344v-93h-49q-35 -122 -136 -197t-234 -75z" />
    <glyph glyph-name="Gbreve.ss04" horiz-adv-x="813" 
d="M389 -10q-164 0 -274.5 109.5t-110.5 275.5t110.5 275.5t274.5 109.5q139 0 242.5 -81t133.5 -213h-116q-25 88 -94 139t-166 51q-121 0 -196.5 -78t-75.5 -203t75.5 -203t196.5 -78q91 0 157.5 44.5t95.5 123.5h-178v93h344v-93h-49q-35 -122 -136 -197t-234 -75z
M274 925h88q-4 -51 30 -51t29 51h84q7 -64 -23 -98.5t-92 -34.5t-92.5 34.5t-23.5 98.5z" />
    <glyph glyph-name="Gcaron.ss04" horiz-adv-x="813" 
d="M389 -10q-164 0 -274.5 109.5t-110.5 275.5t110.5 275.5t274.5 109.5q139 0 242.5 -81t133.5 -213h-116q-25 88 -94 139t-166 51q-121 0 -196.5 -78t-75.5 -203t75.5 -203t196.5 -78q91 0 157.5 44.5t95.5 123.5h-178v93h344v-93h-49q-35 -122 -136 -197t-234 -75z
M292 925h60l38 -51l38 51h60l-57 -135h-82z" />
    <glyph glyph-name="Gcircumflex.ss04" horiz-adv-x="813" 
d="M389 -10q-164 0 -274.5 109.5t-110.5 275.5t110.5 275.5t274.5 109.5q139 0 242.5 -81t133.5 -213h-116q-25 88 -94 139t-166 51q-121 0 -196.5 -78t-75.5 -203t75.5 -203t196.5 -78q91 0 157.5 44.5t95.5 123.5h-178v93h344v-93h-49q-35 -122 -136 -197t-234 -75z
M292 790l57 135h82l57 -135h-60l-38 51l-38 -51h-60z" />
    <glyph glyph-name="uni0122.ss04" horiz-adv-x="813" 
d="M389 -10q-164 0 -274.5 109.5t-110.5 275.5t110.5 275.5t274.5 109.5q139 0 242.5 -81t133.5 -213h-116q-25 88 -94 139t-166 51q-121 0 -196.5 -78t-75.5 -203t75.5 -203t196.5 -78q91 0 157.5 44.5t95.5 123.5h-178v93h344v-93h-49q-35 -122 -136 -197t-234 -75z
M344 -86q0 20 13 32.5t33 12.5t33 -12.5t13 -32.5q0 -11 -7 -29l-42 -106l-34 14l29 76q-38 5 -38 45z" />
    <glyph glyph-name="Gdotaccent.ss04" horiz-adv-x="813" 
d="M389 -10q-164 0 -274.5 109.5t-110.5 275.5t110.5 275.5t274.5 109.5q139 0 242.5 -81t133.5 -213h-116q-25 88 -94 139t-166 51q-121 0 -196.5 -78t-75.5 -203t75.5 -203t196.5 -78q91 0 157.5 44.5t95.5 123.5h-178v93h344v-93h-49q-35 -122 -136 -197t-234 -75z
M323 886q0 29 19 48t48 19t48 -19t19 -48t-18.5 -48t-48.5 -19q-28 0 -47.5 19.5t-19.5 47.5z" />
    <glyph glyph-name="uni1E20.ss04" horiz-adv-x="813" 
d="M389 -10q-164 0 -274.5 109.5t-110.5 275.5t110.5 275.5t274.5 109.5q139 0 242.5 -81t133.5 -213h-116q-25 88 -94 139t-166 51q-121 0 -196.5 -78t-75.5 -203t75.5 -203t196.5 -78q91 0 157.5 44.5t95.5 123.5h-178v93h344v-93h-49q-35 -122 -136 -197t-234 -75z
M291 808v96h198v-96h-198z" />
    <glyph glyph-name="O.ss04" horiz-adv-x="778" 
d="M389 -10q-164 0 -274.5 109.5t-110.5 275.5t110.5 275.5t274.5 109.5t274.5 -109.5t110.5 -275.5t-110.5 -275.5t-274.5 -109.5zM117 375q0 -125 75.5 -203t196.5 -78t196.5 78t75.5 203t-75.5 203t-196.5 78t-196.5 -78t-75.5 -203z" />
    <glyph glyph-name="Oacute.ss04" horiz-adv-x="778" 
d="M389 -10q-164 0 -274.5 109.5t-110.5 275.5t110.5 275.5t274.5 109.5t274.5 -109.5t110.5 -275.5t-110.5 -275.5t-274.5 -109.5zM117 375q0 -125 75.5 -203t196.5 -78t196.5 78t75.5 203t-75.5 203t-196.5 78t-196.5 -78t-75.5 -203zM363 790l20 135h123l-106 -135h-37z
" />
    <glyph glyph-name="Ocircumflex.ss04" horiz-adv-x="778" 
d="M389 -10q-164 0 -274.5 109.5t-110.5 275.5t110.5 275.5t274.5 109.5t274.5 -109.5t110.5 -275.5t-110.5 -275.5t-274.5 -109.5zM117 375q0 -125 75.5 -203t196.5 -78t196.5 78t75.5 203t-75.5 203t-196.5 78t-196.5 -78t-75.5 -203zM291 790l57 135h82l57 -135h-60
l-38 51l-38 -51h-60z" />
    <glyph glyph-name="uni1ED0.ss04" horiz-adv-x="778" 
d="M389 -10q-164 0 -274.5 109.5t-110.5 275.5t110.5 275.5t274.5 109.5t274.5 -109.5t110.5 -275.5t-110.5 -275.5t-274.5 -109.5zM117 375q0 -125 75.5 -203t196.5 -78t196.5 78t75.5 203t-75.5 203t-196.5 78t-196.5 -78t-75.5 -203zM291 790l57 135h82l57 -135h-60
l-38 51l-38 -51h-60zM451 920l17 115h104l-90 -115h-31z" />
    <glyph glyph-name="uni1ED8.ss04" horiz-adv-x="778" 
d="M389 -10q-164 0 -274.5 109.5t-110.5 275.5t110.5 275.5t274.5 109.5t274.5 -109.5t110.5 -275.5t-110.5 -275.5t-274.5 -109.5zM117 375q0 -125 75.5 -203t196.5 -78t196.5 78t75.5 203t-75.5 203t-196.5 78t-196.5 -78t-75.5 -203zM291 790l57 135h82l57 -135h-60
l-38 51l-38 -51h-60zM327 -91q0 27 17.5 44t44.5 17q28 0 45 -17t17 -44q0 -28 -17 -45t-45 -17q-27 0 -44.5 17t-17.5 45z" />
    <glyph glyph-name="uni1ED2.ss04" horiz-adv-x="778" 
d="M389 -10q-164 0 -274.5 109.5t-110.5 275.5t110.5 275.5t274.5 109.5t274.5 -109.5t110.5 -275.5t-110.5 -275.5t-274.5 -109.5zM117 375q0 -125 75.5 -203t196.5 -78t196.5 78t75.5 203t-75.5 203t-196.5 78t-196.5 -78t-75.5 -203zM291 790l57 135h82l57 -135h-60
l-38 51l-38 -51h-60zM400 1035h104l17 -115h-31z" />
    <glyph glyph-name="uni1ED4.ss04" horiz-adv-x="778" 
d="M389 -10q-164 0 -274.5 109.5t-110.5 275.5t110.5 275.5t274.5 109.5t274.5 -109.5t110.5 -275.5t-110.5 -275.5t-274.5 -109.5zM117 375q0 -125 75.5 -203t196.5 -78t196.5 78t75.5 203t-75.5 203t-196.5 78t-196.5 -78t-75.5 -203zM291 790l57 135h82l57 -135h-60
l-38 51l-38 -51h-60zM455 903v40q35 7 35 27q0 25 -35 25v80h2q61 0 89.5 -23.5t28.5 -60.5q0 -49 -54 -69v-19h-66z" />
    <glyph glyph-name="uni1ED6.ss04" horiz-adv-x="778" 
d="M389 -10q-164 0 -274.5 109.5t-110.5 275.5t110.5 275.5t274.5 109.5t274.5 -109.5t110.5 -275.5t-110.5 -275.5t-274.5 -109.5zM117 375q0 -125 75.5 -203t196.5 -78t196.5 78t75.5 203t-75.5 203t-196.5 78t-196.5 -78t-75.5 -203zM263 969q-4 56 16.5 86.5t62.5 30.5
q21 0 46.5 -20.5t32.5 -20.5q18 0 18 34h68q4 -56 -16.5 -86.5t-61.5 -30.5q-21 0 -47 20.5t-32 20.5q-18 0 -18 -34h-69zM291 790l57 135h82l57 -135h-60l-38 51l-38 -51h-60z" />
    <glyph glyph-name="Odieresis.ss04" horiz-adv-x="778" 
d="M389 -10q-164 0 -274.5 109.5t-110.5 275.5t110.5 275.5t274.5 109.5t274.5 -109.5t110.5 -275.5t-110.5 -275.5t-274.5 -109.5zM117 375q0 -125 75.5 -203t196.5 -78t196.5 78t75.5 203t-75.5 203t-196.5 78t-196.5 -78t-75.5 -203zM271 847q0 25 16 40.5t41 15.5
q26 0 42 -15.5t16 -40.5t-16 -41t-42 -16q-25 0 -41 16t-16 41zM392 847q0 25 16 40.5t41 15.5q26 0 42 -15.5t16 -40.5t-16 -41t-42 -16q-25 0 -41 16t-16 41z" />
    <glyph glyph-name="uni1ECC.ss04" horiz-adv-x="778" 
d="M389 -10q-164 0 -274.5 109.5t-110.5 275.5t110.5 275.5t274.5 109.5t274.5 -109.5t110.5 -275.5t-110.5 -275.5t-274.5 -109.5zM117 375q0 -125 75.5 -203t196.5 -78t196.5 78t75.5 203t-75.5 203t-196.5 78t-196.5 -78t-75.5 -203zM327 -91q0 27 17.5 44t44.5 17
q28 0 45 -17t17 -44q0 -28 -17 -45t-45 -17q-27 0 -44.5 17t-17.5 45z" />
    <glyph glyph-name="Ograve.ss04" horiz-adv-x="778" 
d="M389 -10q-164 0 -274.5 109.5t-110.5 275.5t110.5 275.5t274.5 109.5t274.5 -109.5t110.5 -275.5t-110.5 -275.5t-274.5 -109.5zM117 375q0 -125 75.5 -203t196.5 -78t196.5 78t75.5 203t-75.5 203t-196.5 78t-196.5 -78t-75.5 -203zM270 925h123l20 -135h-37z" />
    <glyph glyph-name="uni1ECE.ss04" horiz-adv-x="778" 
d="M389 -10q-164 0 -274.5 109.5t-110.5 275.5t110.5 275.5t274.5 109.5t274.5 -109.5t110.5 -275.5t-110.5 -275.5t-274.5 -109.5zM117 375q0 -125 75.5 -203t196.5 -78t196.5 78t75.5 203t-75.5 203t-196.5 78t-196.5 -78t-75.5 -203zM359 786v41q36 8 36 28q0 26 -36 26
v84h2q64 0 93.5 -24.5t29.5 -63.5q0 -50 -56 -72v-19h-69z" />
    <glyph glyph-name="Ohorn.ss04" horiz-adv-x="778" 
d="M389 -10q-164 0 -274.5 109.5t-110.5 275.5t110.5 275.5t274.5 109.5q48 0 110.5 -5t76.5 -5q30 0 44 12t14 41q0 31 -12 66h99q15 -41 15 -73q0 -103 -108 -114q69 -52 107.5 -131.5t38.5 -175.5q0 -166 -110.5 -275.5t-274.5 -109.5zM117 375q0 -125 75.5 -203
t196.5 -78t196.5 78t75.5 203t-75.5 203t-196.5 78t-196.5 -78t-75.5 -203z" />
    <glyph glyph-name="uni1EDA.ss04" horiz-adv-x="778" 
d="M389 -10q-164 0 -274.5 109.5t-110.5 275.5t110.5 275.5t274.5 109.5q48 0 110.5 -5t76.5 -5q30 0 44 12t14 41q0 31 -12 66h99q15 -41 15 -73q0 -103 -108 -114q69 -52 107.5 -131.5t38.5 -175.5q0 -166 -110.5 -275.5t-274.5 -109.5zM117 375q0 -125 75.5 -203
t196.5 -78t196.5 78t75.5 203t-75.5 203t-196.5 78t-196.5 -78t-75.5 -203zM363 790l20 135h123l-106 -135h-37z" />
    <glyph glyph-name="uni1EE2.ss04" horiz-adv-x="778" 
d="M389 -10q-164 0 -274.5 109.5t-110.5 275.5t110.5 275.5t274.5 109.5q48 0 110.5 -5t76.5 -5q30 0 44 12t14 41q0 31 -12 66h99q15 -41 15 -73q0 -103 -108 -114q69 -52 107.5 -131.5t38.5 -175.5q0 -166 -110.5 -275.5t-274.5 -109.5zM117 375q0 -125 75.5 -203
t196.5 -78t196.5 78t75.5 203t-75.5 203t-196.5 78t-196.5 -78t-75.5 -203zM327 -91q0 27 17.5 44t44.5 17q28 0 45 -17t17 -44q0 -28 -17 -45t-45 -17q-27 0 -44.5 17t-17.5 45z" />
    <glyph glyph-name="uni1EDC.ss04" horiz-adv-x="778" 
d="M389 -10q-164 0 -274.5 109.5t-110.5 275.5t110.5 275.5t274.5 109.5q48 0 110.5 -5t76.5 -5q30 0 44 12t14 41q0 31 -12 66h99q15 -41 15 -73q0 -103 -108 -114q69 -52 107.5 -131.5t38.5 -175.5q0 -166 -110.5 -275.5t-274.5 -109.5zM117 375q0 -125 75.5 -203
t196.5 -78t196.5 78t75.5 203t-75.5 203t-196.5 78t-196.5 -78t-75.5 -203zM270 925h123l20 -135h-37z" />
    <glyph glyph-name="uni1EDE.ss04" horiz-adv-x="778" 
d="M389 -10q-164 0 -274.5 109.5t-110.5 275.5t110.5 275.5t274.5 109.5q48 0 110.5 -5t76.5 -5q30 0 44 12t14 41q0 31 -12 66h99q15 -41 15 -73q0 -103 -108 -114q69 -52 107.5 -131.5t38.5 -175.5q0 -166 -110.5 -275.5t-274.5 -109.5zM117 375q0 -125 75.5 -203
t196.5 -78t196.5 78t75.5 203t-75.5 203t-196.5 78t-196.5 -78t-75.5 -203zM359 786v41q36 8 36 28q0 26 -36 26v84h2q64 0 93.5 -24.5t29.5 -63.5q0 -50 -56 -72v-19h-69z" />
    <glyph glyph-name="uni1EE0.ss04" horiz-adv-x="778" 
d="M389 -10q-164 0 -274.5 109.5t-110.5 275.5t110.5 275.5t274.5 109.5q48 0 110.5 -5t76.5 -5q30 0 44 12t14 41q0 31 -12 66h99q15 -41 15 -73q0 -103 -108 -114q69 -52 107.5 -131.5t38.5 -175.5q0 -166 -110.5 -275.5t-274.5 -109.5zM117 375q0 -125 75.5 -203
t196.5 -78t196.5 78t75.5 203t-75.5 203t-196.5 78t-196.5 -78t-75.5 -203zM255 798q-5 62 17.5 95.5t68.5 33.5q23 0 51.5 -22.5t35.5 -22.5q20 0 20 37h75q5 -62 -17.5 -95.5t-68.5 -33.5q-23 0 -51.5 22.5t-35.5 22.5q-20 0 -20 -37h-75z" />
    <glyph glyph-name="Ohungarumlaut.ss04" horiz-adv-x="778" 
d="M389 -10q-164 0 -274.5 109.5t-110.5 275.5t110.5 275.5t274.5 109.5t274.5 -109.5t110.5 -275.5t-110.5 -275.5t-274.5 -109.5zM117 375q0 -125 75.5 -203t196.5 -78t196.5 78t75.5 203t-75.5 203t-196.5 78t-196.5 -78t-75.5 -203zM285 790l20 135h123l-106 -135h-37z
M410 790l20 135h123l-106 -135h-37z" />
    <glyph glyph-name="Omacron.ss04" horiz-adv-x="778" 
d="M389 -10q-164 0 -274.5 109.5t-110.5 275.5t110.5 275.5t274.5 109.5t274.5 -109.5t110.5 -275.5t-110.5 -275.5t-274.5 -109.5zM117 375q0 -125 75.5 -203t196.5 -78t196.5 78t75.5 203t-75.5 203t-196.5 78t-196.5 -78t-75.5 -203zM290 808v96h198v-96h-198z" />
    <glyph glyph-name="Oslash.ss04" horiz-adv-x="778" 
d="M72 0l59 84q-127 111 -127 291q0 166 110.5 275.5t274.5 109.5q109 0 199 -52l30 42h122l-72 -103q106 -109 106 -272q0 -166 -110.5 -275.5t-274.5 -109.5q-94 0 -175 39l-20 -29h-122zM117 375q0 -133 83 -211l320 463q-58 29 -131 29q-121 0 -196.5 -78t-75.5 -203z
M284 112q48 -18 105 -18q121 0 196.5 78t75.5 203q0 111 -62 189z" />
    <glyph glyph-name="Otilde.ss04" horiz-adv-x="778" 
d="M389 -10q-164 0 -274.5 109.5t-110.5 275.5t110.5 275.5t274.5 109.5t274.5 -109.5t110.5 -275.5t-110.5 -275.5t-274.5 -109.5zM117 375q0 -125 75.5 -203t196.5 -78t196.5 78t75.5 203t-75.5 203t-196.5 78t-196.5 -78t-75.5 -203zM255 798q-5 62 17.5 95.5t68.5 33.5
q23 0 51.5 -22.5t35.5 -22.5q20 0 20 37h75q5 -62 -17.5 -95.5t-68.5 -33.5q-23 0 -51.5 22.5t-35.5 22.5q-20 0 -20 -37h-75z" />
    <glyph glyph-name="OE.ss04" horiz-adv-x="717" 
d="M379 0q-159 0 -267 108t-108 267t108 267t267 108h324v-104h-90v-204h65v-104h-65v-234h90v-104h-324zM121 375q0 -118 71.5 -194.5t186.5 -76.5h122v542h-122q-115 0 -186.5 -76.5t-71.5 -194.5z" />
    <glyph glyph-name="Q.ss04" horiz-adv-x="778" 
d="M389 94q121 0 196.5 78t75.5 203t-75.5 203t-196.5 78t-196.5 -78t-75.5 -203t75.5 -203t196.5 -78zM4 375q0 166 110.5 275.5t274.5 109.5t274.5 -109.5t110.5 -275.5q0 -149 -90.5 -254.5t-232.5 -126.5q36 -61 167 -61h85v-113h-83q-126 0 -190.5 41t-78.5 131
q-151 13 -249 120t-98 263z" />
    <glyph glyph-name="A.ss05" 
d="M143 758q57 0 92.5 -34t35.5 -86v-638h-113v227h-29v-227h-113v638q0 52 35.5 86t91.5 34zM129 320h29v318q0 16 -15 16q-14 0 -14 -16v-318z" />
    <glyph glyph-name="Aacute.ss05" 
d="M143 758q57 0 92.5 -34t35.5 -86v-638h-113v227h-29v-227h-113v638q0 52 35.5 86t91.5 34zM118 790l20 135h123l-106 -135h-37zM129 320h29v318q0 16 -15 16q-14 0 -14 -16v-318z" />
    <glyph glyph-name="Abreve.ss05" 
d="M143 758q57 0 92.5 -34t35.5 -86v-638h-113v227h-29v-227h-113v638q0 52 35.5 86t91.5 34zM28 925h88q-4 -51 30 -51t29 51h84q7 -64 -23 -98.5t-92 -34.5t-92.5 34.5t-23.5 98.5zM129 320h29v318q0 16 -15 16q-14 0 -14 -16v-318z" />
    <glyph glyph-name="Acircumflex.ss05" 
d="M143 758q57 0 92.5 -34t35.5 -86v-638h-113v227h-29v-227h-113v638q0 52 35.5 86t91.5 34zM46 790l57 135h82l57 -135h-60l-38 51l-38 -51h-60zM129 320h29v318q0 16 -15 16q-14 0 -14 -16v-318z" />
    <glyph glyph-name="Adieresis.ss05" 
d="M143 758q57 0 92.5 -34t35.5 -86v-638h-113v227h-29v-227h-113v638q0 52 35.5 86t91.5 34zM26 847q0 25 16 40.5t41 15.5q26 0 42 -15.5t16 -40.5t-16 -41t-42 -16q-25 0 -41 16t-16 41zM129 320h29v318q0 16 -15 16q-14 0 -14 -16v-318zM147 847q0 25 16 40.5t41 15.5
q26 0 42 -15.5t16 -40.5t-16 -41t-42 -16q-25 0 -41 16t-16 41z" />
    <glyph glyph-name="Agrave.ss05" 
d="M143 758q57 0 92.5 -34t35.5 -86v-638h-113v227h-29v-227h-113v638q0 52 35.5 86t91.5 34zM25 925h123l20 -135h-37zM129 320h29v318q0 16 -15 16q-14 0 -14 -16v-318z" />
    <glyph glyph-name="Amacron.ss05" 
d="M143 758q57 0 92.5 -34t35.5 -86v-638h-113v227h-29v-227h-113v638q0 52 35.5 86t91.5 34zM45 808v96h198v-96h-198zM129 320h29v318q0 16 -15 16q-14 0 -14 -16v-318z" />
    <glyph glyph-name="Aogonek.ss05" 
d="M143 758q57 0 92.5 -34t35.5 -86v-638q-39 -43 -39 -69q0 -33 39 -33v-79q-72 -4 -108 19t-36 63q0 63 77 99h-46v227h-29v-227h-113v638q0 52 35.5 86t91.5 34zM129 320h29v318q0 16 -15 16q-14 0 -14 -16v-318z" />
    <glyph glyph-name="Aring.ss05" 
d="M143 758q57 0 92.5 -34t35.5 -86v-638h-113v227h-29v-227h-113v638q0 52 35.5 86t91.5 34zM53 871q0 39 26 65t65 26t65 -26t26 -65t-26 -65t-65 -26t-65 26t-26 65zM119 871q0 -13 7 -21t18 -8t18 8t7 21t-7 21t-18 8t-18 -8t-7 -21zM129 320h29v318q0 16 -15 16
q-14 0 -14 -16v-318z" />
    <glyph glyph-name="Atilde.ss05" 
d="M143 758q57 0 92.5 -34t35.5 -86v-638h-113v227h-29v-227h-113v638q0 52 35.5 86t91.5 34zM10 798q-5 62 17.5 95.5t68.5 33.5q23 0 51.5 -22.5t35.5 -22.5q20 0 20 37h75q5 -62 -17.5 -95.5t-68.5 -33.5q-23 0 -51.5 22.5t-35.5 22.5q-20 0 -20 -37h-75zM129 320h29v318
q0 16 -15 16q-14 0 -14 -16v-318z" />
    <glyph glyph-name="i.loclTRK" horiz-adv-x="144" 
d="M128 550v-550h-112v550h112zM5 686q0 29 19 48t48 19t48 -19t19 -48t-18.5 -48t-48.5 -19q-28 0 -47.5 19.5t-19.5 47.5z" />
    <glyph glyph-name="uni006A0301" horiz-adv-x="145" 
d="M-1 -186q-15 0 -33 3v107h19q32 0 32 37v589h112v-594q0 -75 -31 -108.5t-99 -33.5zM47 590l20 135h123l-106 -135h-37z" />
    <glyph glyph-name="a.bold" horiz-adv-x="281" 
d="M94 -10q-83 0 -83 139v16q0 73 20 107.5t75 53.5l48 17v117q0 17 -15 17q-14 0 -14 -17v-87h-112v77q0 59 34.5 94.5t91.5 35.5t92 -35.5t35 -94.5v-430h-91l-12 50h-2q-10 -32 -25.5 -46t-41.5 -14zM123 120q0 -21 16 -21q15 0 15 21v123l-9 -3q-22 -7 -22 -41v-79z" />
    <glyph glyph-name="aacute.bold" horiz-adv-x="281" 
d="M94 -10q-83 0 -83 139v16q0 73 20 107.5t75 53.5l48 17v117q0 17 -15 17q-14 0 -14 -17v-87h-112v77q0 59 34.5 94.5t91.5 35.5t92 -35.5t35 -94.5v-430h-91l-12 50h-2q-10 -32 -25.5 -46t-41.5 -14zM115 590l20 135h123l-106 -135h-37zM123 120q0 -21 16 -21q15 0 15 21
v123l-9 -3q-22 -7 -22 -41v-79z" />
    <glyph glyph-name="abreve.bold" horiz-adv-x="281" 
d="M94 -10q-83 0 -83 139v16q0 73 20 107.5t75 53.5l48 17v117q0 17 -15 17q-14 0 -14 -17v-87h-112v77q0 59 34.5 94.5t91.5 35.5t92 -35.5t35 -94.5v-430h-91l-12 50h-2q-10 -32 -25.5 -46t-41.5 -14zM25 725h88q-5 -51 30 -51q33 0 29 51h84q7 -64 -23 -98.5t-92 -34.5
t-92.5 34.5t-23.5 98.5zM123 120q0 -21 16 -21q15 0 15 21v123l-9 -3q-22 -7 -22 -41v-79z" />
    <glyph glyph-name="uni1EAF.bold" horiz-adv-x="281" 
d="M94 -10q-83 0 -83 139v16q0 73 20 107.5t75 53.5l48 17v117q0 17 -15 17q-14 0 -14 -17v-87h-112v77q0 59 34.5 94.5t91.5 35.5t92 -35.5t35 -94.5v-430h-91l-12 50h-2q-10 -32 -25.5 -46t-41.5 -14zM25 725h88q-5 -51 30 -51q33 0 29 51h84q7 -64 -23 -98.5t-92 -34.5
t-92.5 34.5t-23.5 98.5zM123 120q0 -21 16 -21q15 0 15 21v123l-9 -3q-22 -7 -22 -41v-79zM126 749l17 115h104l-90 -115h-31z" />
    <glyph glyph-name="uni1EB7.bold" horiz-adv-x="281" 
d="M94 -10q-83 0 -83 139v16q0 73 20 107.5t75 53.5l48 17v117q0 17 -15 17q-14 0 -14 -17v-87h-112v77q0 59 34.5 94.5t91.5 35.5t92 -35.5t35 -94.5v-430h-91l-12 50h-2q-10 -32 -25.5 -46t-41.5 -14zM25 725h88q-5 -51 30 -51q33 0 29 51h84q7 -64 -23 -98.5t-92 -34.5
t-92.5 34.5t-23.5 98.5zM79 -91q0 27 17.5 44t44.5 17q28 0 45 -17t17 -44q0 -28 -17 -45t-45 -17q-27 0 -44.5 17t-17.5 45zM123 120q0 -21 16 -21q15 0 15 21v123l-9 -3q-22 -7 -22 -41v-79z" />
    <glyph glyph-name="uni1EB1.bold" horiz-adv-x="281" 
d="M94 -10q-83 0 -83 139v16q0 73 20 107.5t75 53.5l48 17v117q0 17 -15 17q-14 0 -14 -17v-87h-112v77q0 59 34.5 94.5t91.5 35.5t92 -35.5t35 -94.5v-430h-91l-12 50h-2q-10 -32 -25.5 -46t-41.5 -14zM25 725h88q-5 -51 30 -51q33 0 29 51h84q7 -64 -23 -98.5t-92 -34.5
t-92.5 34.5t-23.5 98.5zM42 864h104l17 -115h-31zM123 120q0 -21 16 -21q15 0 15 21v123l-9 -3q-22 -7 -22 -41v-79z" />
    <glyph glyph-name="uni1EB3.bold" horiz-adv-x="281" 
d="M94 -10q-83 0 -83 139v16q0 73 20 107.5t75 53.5l48 17v117q0 17 -15 17q-14 0 -14 -17v-87h-112v77q0 59 34.5 94.5t91.5 35.5t92 -35.5t35 -94.5v-430h-91l-12 50h-2q-10 -32 -25.5 -46t-41.5 -14zM25 725h88q-5 -51 30 -51q33 0 29 51h84q7 -64 -23 -98.5t-92 -34.5
t-92.5 34.5t-23.5 98.5zM112 748v38q33 8 33 26q0 24 -33 24v78h2q59 0 86.5 -22.5t27.5 -59.5q0 -46 -52 -66v-18h-64zM123 120q0 -21 16 -21q15 0 15 21v123l-9 -3q-22 -7 -22 -41v-79z" />
    <glyph glyph-name="uni1EB5.bold" horiz-adv-x="281" 
d="M94 -10q-83 0 -83 139v16q0 73 20 107.5t75 53.5l48 17v117q0 17 -15 17q-14 0 -14 -17v-87h-112v77q0 59 34.5 94.5t91.5 35.5t92 -35.5t35 -94.5v-430h-91l-12 50h-2q-10 -32 -25.5 -46t-41.5 -14zM15 769q-4 56 16.5 86.5t62.5 30.5q21 0 46.5 -20.5t32.5 -20.5
q18 0 18 34h68q4 -56 -16.5 -86.5t-61.5 -30.5q-21 0 -47 20.5t-32 20.5q-18 0 -18 -34h-69zM25 725h88q-5 -51 30 -51q33 0 29 51h84q7 -64 -23 -98.5t-92 -34.5t-92.5 34.5t-23.5 98.5zM123 120q0 -21 16 -21q15 0 15 21v123l-9 -3q-22 -7 -22 -41v-79z" />
    <glyph glyph-name="acircumflex.bold" horiz-adv-x="281" 
d="M94 -10q-83 0 -83 139v16q0 73 20 107.5t75 53.5l48 17v117q0 17 -15 17q-14 0 -14 -17v-87h-112v77q0 59 34.5 94.5t91.5 35.5t92 -35.5t35 -94.5v-430h-91l-12 50h-2q-10 -32 -25.5 -46t-41.5 -14zM43 590l57 135h82l57 -135h-60l-38 51l-38 -51h-60zM123 120
q0 -21 16 -21q15 0 15 21v123l-9 -3q-22 -7 -22 -41v-79z" />
    <glyph glyph-name="uni1EA5.bold" horiz-adv-x="281" 
d="M94 -10q-83 0 -83 139v16q0 73 20 107.5t75 53.5l48 17v117q0 17 -15 17q-14 0 -14 -17v-87h-112v77q0 59 34.5 94.5t91.5 35.5t92 -35.5t35 -94.5v-430h-91l-12 50h-2q-10 -32 -25.5 -46t-41.5 -14zM43 590l57 135h82l57 -135h-60l-38 51l-38 -51h-60zM123 120
q0 -21 16 -21q15 0 15 21v123l-9 -3q-22 -7 -22 -41v-79zM203 720l17 115h104l-90 -115h-31z" />
    <glyph glyph-name="uni1EAD.bold" horiz-adv-x="281" 
d="M94 -10q-83 0 -83 139v16q0 73 20 107.5t75 53.5l48 17v117q0 17 -15 17q-14 0 -14 -17v-87h-112v77q0 59 34.5 94.5t91.5 35.5t92 -35.5t35 -94.5v-430h-91l-12 50h-2q-10 -32 -25.5 -46t-41.5 -14zM43 590l57 135h82l57 -135h-60l-38 51l-38 -51h-60zM79 -91
q0 27 17.5 44t44.5 17q28 0 45 -17t17 -44q0 -28 -17 -45t-45 -17q-27 0 -44.5 17t-17.5 45zM123 120q0 -21 16 -21q15 0 15 21v123l-9 -3q-22 -7 -22 -41v-79z" />
    <glyph glyph-name="uni1EA7.bold" horiz-adv-x="281" 
d="M94 -10q-83 0 -83 139v16q0 73 20 107.5t75 53.5l48 17v117q0 17 -15 17q-14 0 -14 -17v-87h-112v77q0 59 34.5 94.5t91.5 35.5t92 -35.5t35 -94.5v-430h-91l-12 50h-2q-10 -32 -25.5 -46t-41.5 -14zM43 590l57 135h82l57 -135h-60l-38 51l-38 -51h-60zM123 120
q0 -21 16 -21q15 0 15 21v123l-9 -3q-22 -7 -22 -41v-79zM152 835h104l17 -115h-31z" />
    <glyph glyph-name="uni1EA9.bold" horiz-adv-x="281" 
d="M94 -10q-83 0 -83 139v16q0 73 20 107.5t75 53.5l48 17v117q0 17 -15 17q-14 0 -14 -17v-87h-112v77q0 59 34.5 94.5t91.5 35.5t92 -35.5t35 -94.5v-430h-91l-12 50h-2q-10 -32 -25.5 -46t-41.5 -14zM43 590l57 135h82l57 -135h-60l-38 51l-38 -51h-60zM123 120
q0 -21 16 -21q15 0 15 21v123l-9 -3q-22 -7 -22 -41v-79zM207 703v40q35 7 35 27q0 25 -35 25v80h2q61 0 89.5 -23.5t28.5 -60.5q0 -49 -54 -69v-19h-66z" />
    <glyph glyph-name="uni1EAB.bold" horiz-adv-x="281" 
d="M94 -10q-83 0 -83 139v16q0 73 20 107.5t75 53.5l48 17v117q0 17 -15 17q-14 0 -14 -17v-87h-112v77q0 59 34.5 94.5t91.5 35.5t92 -35.5t35 -94.5v-430h-91l-12 50h-2q-10 -32 -25.5 -46t-41.5 -14zM15 769q-4 56 16.5 86.5t62.5 30.5q21 0 46.5 -20.5t32.5 -20.5
q18 0 18 34h68q4 -56 -16.5 -86.5t-61.5 -30.5q-21 0 -47 20.5t-32 20.5q-18 0 -18 -34h-69zM43 590l57 135h82l57 -135h-60l-38 51l-38 -51h-60zM123 120q0 -21 16 -21q15 0 15 21v123l-9 -3q-22 -7 -22 -41v-79z" />
    <glyph glyph-name="adieresis.bold" horiz-adv-x="281" 
d="M94 -10q-83 0 -83 139v16q0 73 20 107.5t75 53.5l48 17v117q0 17 -15 17q-14 0 -14 -17v-87h-112v77q0 59 34.5 94.5t91.5 35.5t92 -35.5t35 -94.5v-430h-91l-12 50h-2q-10 -32 -25.5 -46t-41.5 -14zM23 647q0 25 16 40.5t41 15.5q26 0 42 -15.5t16 -40.5t-16 -41
t-42 -16q-25 0 -41 16t-16 41zM123 120q0 -21 16 -21q15 0 15 21v123l-9 -3q-22 -7 -22 -41v-79zM144 647q0 25 16 40.5t41 15.5q26 0 42 -15.5t16 -40.5t-16 -41t-42 -16q-25 0 -41 16t-16 41z" />
    <glyph glyph-name="uni1EA1.bold" horiz-adv-x="281" 
d="M94 -10q-83 0 -83 139v16q0 73 20 107.5t75 53.5l48 17v117q0 17 -15 17q-14 0 -14 -17v-87h-112v77q0 59 34.5 94.5t91.5 35.5t92 -35.5t35 -94.5v-430h-91l-12 50h-2q-10 -32 -25.5 -46t-41.5 -14zM79 -91q0 27 17.5 44t44.5 17q28 0 45 -17t17 -44q0 -28 -17 -45
t-45 -17q-27 0 -44.5 17t-17.5 45zM123 120q0 -21 16 -21q15 0 15 21v123l-9 -3q-22 -7 -22 -41v-79z" />
    <glyph glyph-name="agrave.bold" horiz-adv-x="281" 
d="M94 -10q-83 0 -83 139v16q0 73 20 107.5t75 53.5l48 17v117q0 17 -15 17q-14 0 -14 -17v-87h-112v77q0 59 34.5 94.5t91.5 35.5t92 -35.5t35 -94.5v-430h-91l-12 50h-2q-10 -32 -25.5 -46t-41.5 -14zM22 725h123l20 -135h-37zM123 120q0 -21 16 -21q15 0 15 21v123l-9 -3
q-22 -7 -22 -41v-79z" />
    <glyph glyph-name="uni1EA3.bold" horiz-adv-x="281" 
d="M94 -10q-83 0 -83 139v16q0 73 20 107.5t75 53.5l48 17v117q0 17 -15 17q-14 0 -14 -17v-87h-112v77q0 59 34.5 94.5t91.5 35.5t92 -35.5t35 -94.5v-430h-91l-12 50h-2q-10 -32 -25.5 -46t-41.5 -14zM111 586v41q36 8 36 28q0 26 -36 26v84h2q64 0 93.5 -24.5t29.5 -63.5
q0 -50 -56 -72v-19h-69zM123 120q0 -21 16 -21q15 0 15 21v123l-9 -3q-22 -7 -22 -41v-79z" />
    <glyph glyph-name="amacron.bold" horiz-adv-x="281" 
d="M94 -10q-83 0 -83 139v16q0 73 20 107.5t75 53.5l48 17v117q0 17 -15 17q-14 0 -14 -17v-87h-112v77q0 59 34.5 94.5t91.5 35.5t92 -35.5t35 -94.5v-430h-91l-12 50h-2q-10 -32 -25.5 -46t-41.5 -14zM42 608v96h198v-96h-198zM123 120q0 -21 16 -21q15 0 15 21v123l-9 -3
q-22 -7 -22 -41v-79z" />
    <glyph glyph-name="aogonek.bold" horiz-adv-x="281" 
d="M94 -10q-83 0 -83 139v16q0 73 20 107.5t75 53.5l48 17v117q0 17 -15 17q-14 0 -14 -17v-87h-112v77q0 59 34.5 94.5t91.5 35.5t92 -35.5t35 -94.5v-430q-39 -43 -39 -69q0 -33 39 -33v-79q-72 -4 -108 19t-36 63q0 63 77 99h-24l-12 50h-2q-10 -32 -25.5 -46t-41.5 -14z
M123 120q0 -21 16 -21q15 0 15 21v123l-9 -3q-22 -7 -22 -41v-79z" />
    <glyph glyph-name="aring.bold" horiz-adv-x="281" 
d="M94 -10q-83 0 -83 139v16q0 73 20 107.5t75 53.5l48 17v117q0 17 -15 17q-14 0 -14 -17v-87h-112v77q0 59 34.5 94.5t91.5 35.5t92 -35.5t35 -94.5v-430h-91l-12 50h-2q-10 -32 -25.5 -46t-41.5 -14zM50 671q0 39 26 65t65 26t65 -26t26 -65t-26 -65t-65 -26t-65 26
t-26 65zM116 671q0 -13 7 -21t18 -8t18 8t7 21t-7 21t-18 8t-18 -8t-7 -21zM123 120q0 -21 16 -21q15 0 15 21v123l-9 -3q-22 -7 -22 -41v-79z" />
    <glyph glyph-name="atilde.bold" horiz-adv-x="281" 
d="M94 -10q-83 0 -83 139v16q0 73 20 107.5t75 53.5l48 17v117q0 17 -15 17q-14 0 -14 -17v-87h-112v77q0 59 34.5 94.5t91.5 35.5t92 -35.5t35 -94.5v-430h-91l-12 50h-2q-10 -32 -25.5 -46t-41.5 -14zM7 598q-5 62 17.5 95.5t68.5 33.5q23 0 51.5 -22.5t35.5 -22.5
q20 0 20 37h75q5 -62 -17.5 -95.5t-68.5 -33.5q-23 0 -51.5 22.5t-35.5 22.5q-20 0 -20 -37h-75zM123 120q0 -21 16 -21q15 0 15 21v123l-9 -3q-22 -7 -22 -41v-79z" />
    <glyph glyph-name="e.bold" horiz-adv-x="283" 
d="M142 -10q-58 0 -93 35.5t-35 94.5v310q0 59 35 94.5t93 35.5q57 0 92 -35.5t35 -94.5v-176h-143v-146q0 -17 16 -17q15 0 15 17v115h112v-103q0 -59 -35 -94.5t-92 -35.5zM126 324h31v118q0 17 -15 17q-16 0 -16 -17v-118z" />
    <glyph glyph-name="eacute.bold" horiz-adv-x="283" 
d="M142 -10q-58 0 -93 35.5t-35 94.5v310q0 59 35 94.5t93 35.5q57 0 92 -35.5t35 -94.5v-176h-143v-146q0 -17 16 -17q15 0 15 17v115h112v-103q0 -59 -35 -94.5t-92 -35.5zM116 590l20 135h123l-106 -135h-37zM126 324h31v118q0 17 -15 17q-16 0 -16 -17v-118z" />
    <glyph glyph-name="ecaron.bold" horiz-adv-x="283" 
d="M142 -10q-58 0 -93 35.5t-35 94.5v310q0 59 35 94.5t93 35.5q57 0 92 -35.5t35 -94.5v-176h-143v-146q0 -17 16 -17q15 0 15 17v115h112v-103q0 -59 -35 -94.5t-92 -35.5zM44 725h60l38 -51l38 51h60l-57 -135h-82zM126 324h31v118q0 17 -15 17q-16 0 -16 -17v-118z" />
    <glyph glyph-name="ecircumflex.bold" horiz-adv-x="283" 
d="M142 -10q-58 0 -93 35.5t-35 94.5v310q0 59 35 94.5t93 35.5q57 0 92 -35.5t35 -94.5v-176h-143v-146q0 -17 16 -17q15 0 15 17v115h112v-103q0 -59 -35 -94.5t-92 -35.5zM44 590l57 135h82l57 -135h-60l-38 51l-38 -51h-60zM126 324h31v118q0 17 -15 17q-16 0 -16 -17
v-118z" />
    <glyph glyph-name="uni1EBF.bold" horiz-adv-x="283" 
d="M142 -10q-58 0 -93 35.5t-35 94.5v310q0 59 35 94.5t93 35.5q57 0 92 -35.5t35 -94.5v-176h-143v-146q0 -17 16 -17q15 0 15 17v115h112v-103q0 -59 -35 -94.5t-92 -35.5zM44 590l57 135h82l57 -135h-60l-38 51l-38 -51h-60zM126 324h31v118q0 17 -15 17q-16 0 -16 -17
v-118zM204 720l17 115h104l-90 -115h-31z" />
    <glyph glyph-name="uni1EC7.bold" horiz-adv-x="283" 
d="M142 -10q-58 0 -93 35.5t-35 94.5v310q0 59 35 94.5t93 35.5q57 0 92 -35.5t35 -94.5v-176h-143v-146q0 -17 16 -17q15 0 15 17v115h112v-103q0 -59 -35 -94.5t-92 -35.5zM44 590l57 135h82l57 -135h-60l-38 51l-38 -51h-60zM80 -91q0 27 17.5 44t44.5 17q28 0 45 -17
t17 -44q0 -28 -17 -45t-45 -17q-27 0 -44.5 17t-17.5 45zM126 324h31v118q0 17 -15 17q-16 0 -16 -17v-118z" />
    <glyph glyph-name="uni1EC1.bold" horiz-adv-x="283" 
d="M142 -10q-58 0 -93 35.5t-35 94.5v310q0 59 35 94.5t93 35.5q57 0 92 -35.5t35 -94.5v-176h-143v-146q0 -17 16 -17q15 0 15 17v115h112v-103q0 -59 -35 -94.5t-92 -35.5zM44 590l57 135h82l57 -135h-60l-38 51l-38 -51h-60zM126 324h31v118q0 17 -15 17q-16 0 -16 -17
v-118zM153 835h104l17 -115h-31z" />
    <glyph glyph-name="uni1EC3.bold" horiz-adv-x="283" 
d="M142 -10q-58 0 -93 35.5t-35 94.5v310q0 59 35 94.5t93 35.5q57 0 92 -35.5t35 -94.5v-176h-143v-146q0 -17 16 -17q15 0 15 17v115h112v-103q0 -59 -35 -94.5t-92 -35.5zM44 590l57 135h82l57 -135h-60l-38 51l-38 -51h-60zM126 324h31v118q0 17 -15 17q-16 0 -16 -17
v-118zM208 703v40q35 7 35 27q0 25 -35 25v80h2q61 0 89.5 -23.5t28.5 -60.5q0 -49 -54 -69v-19h-66z" />
    <glyph glyph-name="uni1EC5.bold" horiz-adv-x="283" 
d="M142 -10q-58 0 -93 35.5t-35 94.5v310q0 59 35 94.5t93 35.5q57 0 92 -35.5t35 -94.5v-176h-143v-146q0 -17 16 -17q15 0 15 17v115h112v-103q0 -59 -35 -94.5t-92 -35.5zM16 769q-4 56 16.5 86.5t62.5 30.5q21 0 46.5 -20.5t32.5 -20.5q18 0 18 34h68q4 -56 -16.5 -86.5
t-61.5 -30.5q-21 0 -47 20.5t-32 20.5q-18 0 -18 -34h-69zM44 590l57 135h82l57 -135h-60l-38 51l-38 -51h-60zM126 324h31v118q0 17 -15 17q-16 0 -16 -17v-118z" />
    <glyph glyph-name="edieresis.bold" horiz-adv-x="283" 
d="M142 -10q-58 0 -93 35.5t-35 94.5v310q0 59 35 94.5t93 35.5q57 0 92 -35.5t35 -94.5v-176h-143v-146q0 -17 16 -17q15 0 15 17v115h112v-103q0 -59 -35 -94.5t-92 -35.5zM24 647q0 25 16 40.5t41 15.5q26 0 42 -15.5t16 -40.5t-16 -41t-42 -16q-25 0 -41 16t-16 41z
M126 324h31v118q0 17 -15 17q-16 0 -16 -17v-118zM145 647q0 25 16 40.5t41 15.5q26 0 42 -15.5t16 -40.5t-16 -41t-42 -16q-25 0 -41 16t-16 41z" />
    <glyph glyph-name="edotaccent.bold" horiz-adv-x="283" 
d="M142 -10q-58 0 -93 35.5t-35 94.5v310q0 59 35 94.5t93 35.5q57 0 92 -35.5t35 -94.5v-176h-143v-146q0 -17 16 -17q15 0 15 17v115h112v-103q0 -59 -35 -94.5t-92 -35.5zM75 686q0 29 19 48t48 19t48 -19t19 -48t-18.5 -48t-48.5 -19q-28 0 -47.5 19.5t-19.5 47.5z
M126 324h31v118q0 17 -15 17q-16 0 -16 -17v-118z" />
    <glyph glyph-name="uni1EB9.bold" horiz-adv-x="283" 
d="M142 -10q-58 0 -93 35.5t-35 94.5v310q0 59 35 94.5t93 35.5q57 0 92 -35.5t35 -94.5v-176h-143v-146q0 -17 16 -17q15 0 15 17v115h112v-103q0 -59 -35 -94.5t-92 -35.5zM80 -91q0 27 17.5 44t44.5 17q28 0 45 -17t17 -44q0 -28 -17 -45t-45 -17q-27 0 -44.5 17
t-17.5 45zM126 324h31v118q0 17 -15 17q-16 0 -16 -17v-118z" />
    <glyph glyph-name="egrave.bold" horiz-adv-x="283" 
d="M142 -10q-58 0 -93 35.5t-35 94.5v310q0 59 35 94.5t93 35.5q57 0 92 -35.5t35 -94.5v-176h-143v-146q0 -17 16 -17q15 0 15 17v115h112v-103q0 -59 -35 -94.5t-92 -35.5zM23 725h123l20 -135h-37zM126 324h31v118q0 17 -15 17q-16 0 -16 -17v-118z" />
    <glyph glyph-name="uni1EBB.bold" horiz-adv-x="283" 
d="M142 -10q-58 0 -93 35.5t-35 94.5v310q0 59 35 94.5t93 35.5q57 0 92 -35.5t35 -94.5v-176h-143v-146q0 -17 16 -17q15 0 15 17v115h112v-103q0 -59 -35 -94.5t-92 -35.5zM112 586v41q36 8 36 28q0 26 -36 26v84h2q64 0 93.5 -24.5t29.5 -63.5q0 -50 -56 -72v-19h-69z
M126 324h31v118q0 17 -15 17q-16 0 -16 -17v-118z" />
    <glyph glyph-name="emacron.bold" horiz-adv-x="283" 
d="M142 -10q-58 0 -93 35.5t-35 94.5v310q0 59 35 94.5t93 35.5q57 0 92 -35.5t35 -94.5v-176h-143v-146q0 -17 16 -17q15 0 15 17v115h112v-103q0 -59 -35 -94.5t-92 -35.5zM43 608v96h198v-96h-198zM126 324h31v118q0 17 -15 17q-16 0 -16 -17v-118z" />
    <glyph glyph-name="eogonek.bold" horiz-adv-x="283" 
d="M197 -180q-72 -4 -108 19t-36 63q0 55 61 90q-46 9 -73 43t-27 85v310q0 59 35 94.5t93 35.5q57 0 92 -35.5t35 -94.5v-176h-143v-146q0 -17 16 -17q15 0 15 17v115h112v-103q0 -89 -73 -120q-38 -42 -38 -68q0 -33 39 -33v-79zM126 324h31v118q0 17 -15 17
q-16 0 -16 -17v-118z" />
    <glyph glyph-name="uni1EBD.bold" horiz-adv-x="283" 
d="M142 -10q-58 0 -93 35.5t-35 94.5v310q0 59 35 94.5t93 35.5q57 0 92 -35.5t35 -94.5v-176h-143v-146q0 -17 16 -17q15 0 15 17v115h112v-103q0 -59 -35 -94.5t-92 -35.5zM8 598q-5 62 17.5 95.5t68.5 33.5q23 0 51.5 -22.5t35.5 -22.5q20 0 20 37h75q5 -62 -17.5 -95.5
t-68.5 -33.5q-23 0 -51.5 22.5t-35.5 22.5q-20 0 -20 -37h-75zM126 324h31v118q0 17 -15 17q-16 0 -16 -17v-118z" />
    <glyph glyph-name="oslash.bold" horiz-adv-x="289" 
d="M145 -10q-23 0 -43 6l-14 -33h-87l34 85q-18 30 -18 72v310q0 59 35 94.5t93 35.5q23 0 43 -6l13 33h87l-34 -85q18 -30 18 -72v-310q0 -59 -35 -94.5t-92 -35.5zM129 110q0 -17 16 -17q15 0 15 17v164l-31 -130v-34zM129 261l31 128v51q0 17 -15 17q-16 0 -16 -17v-179z
" />
    <glyph glyph-name="f.001" horiz-adv-x="221" 
d="M41 617q0 72 35.5 107.5t96.5 35.5q20 0 36 -4v-103q-14 2 -17 2q-19 0 -29 -14t-10 -36v-55h106v-102h-106v-448h-112v448h-35v102h35v67z" />
    <glyph glyph-name="cacute.loclPLK" horiz-adv-x="283" 
d="M142 -10q-58 0 -93 35.5t-35 94.5v310q0 59 35 94.5t93 35.5q57 0 92 -35.5t35 -94.5v-137h-112v147q0 17 -15 17q-16 0 -16 -17v-330q0 -17 16 -17q15 0 15 17v147h112v-137q0 -59 -35 -94.5t-92 -35.5zM116 590v135h123l-86 -135h-37z" />
    <glyph glyph-name="nacute.loclPLK" horiz-adv-x="285" 
d="M159 412q0 24 -15 24q-16 0 -16 -27v-409h-112v550h102v-62h3q10 35 26 53.5t50 18.5q40 0 57 -26t17 -77v-457h-112v412zM117 590v135h123l-86 -135h-37z" />
    <glyph glyph-name="oacute.loclPLK" horiz-adv-x="283" 
d="M142 -10q-58 0 -93 35.5t-35 94.5v310q0 59 35 94.5t93 35.5q57 0 92 -35.5t35 -94.5v-310q0 -59 -35 -94.5t-92 -35.5zM116 590v135h123l-86 -135h-37zM126 110q0 -17 16 -17q15 0 15 17v330q0 17 -15 17q-16 0 -16 -17v-330z" />
    <glyph glyph-name="sacute.loclPLK" horiz-adv-x="275" 
d="M137 -10q-57 0 -92 35.5t-35 94.5v55h112v-65q0 -17 15 -17q16 0 16 17v42q0 17 -1 25.5t-8 19t-21 19.5l-56 37q-31 20 -43.5 55.5t-12.5 98.5q0 75 34 114t93 39q57 0 91.5 -35.5t34.5 -94.5v-55h-112v65q0 17 -14 17q-15 0 -15 -17v-32q0 -19 1 -28t8.5 -21.5
t22.5 -22.5l56 -37q32 -21 43 -53.5t11 -102.5q0 -75 -34.5 -114t-93.5 -39zM112 590v135h123l-86 -135h-37z" />
    <glyph glyph-name="zacute.loclPLK" horiz-adv-x="220" 
d="M8 0v103l102 346h-98v101h196v-103l-102 -346h106v-101h-204zM84 590v135h123l-86 -135h-37z" />
    <glyph glyph-name="A.sups" horiz-adv-x="184" 
d="M0 255l44 495h96l44 -495h-76l-3 77h-29l-4 -77h-72zM79 392h23l-11 249z" />
    <glyph glyph-name="B.sups" horiz-adv-x="202" 
d="M16 255v495h88q38 0 61 -23.5t23 -62.5v-84q0 -37 -21 -58q21 -20 21 -58v-123q0 -39 -23 -62.5t-61 -23.5h-88zM89 324h15q10 0 10 10v143q0 11 -10 11h-15v-164zM89 557h15q10 0 10 10v104q0 10 -10 10h-15v-124z" />
    <glyph glyph-name="C.sups" horiz-adv-x="200" 
d="M100 248q-38 0 -61 22.5t-23 57.5v349q0 35 23 57.5t61 22.5q37 0 60.5 -22.5t23.5 -57.5v-130h-74v130q0 12 -10 12q-11 0 -11 -12v-349q0 -12 11 -12q10 0 10 12v140h74v-140q0 -35 -23.5 -57.5t-60.5 -22.5z" />
    <glyph glyph-name="D.sups" horiz-adv-x="199" 
d="M16 255v495h83q38 0 61 -22.5t23 -56.5v-337q0 -34 -23 -56.5t-61 -22.5h-83zM89 324h10q10 0 10 10v337q0 10 -10 10h-10v-357z" />
    <glyph glyph-name="E.sups" horiz-adv-x="163" 
d="M16 255v495h133v-69h-60v-134h43v-69h-43v-154h60v-69h-133z" />
    <glyph glyph-name="F.sups" horiz-adv-x="152" 
d="M16 255v495h124v-69h-51v-161h45v-68h-45v-197h-73z" />
    </font>
</defs>
</svg>
